Скачать через торрент музыку Joe Pass — Blues Dues бесплатно без регистрации torrent

Если у вас наблюдаются проблемы со скриншотами, переходом по ссылками, скачиванием торрентов - проблемы в блокировщике рекламы AdBlock. #хорошегоДня!


Статистика раздачи
Размер:  240 MB   |    Зарегистрирован:  5 лет 8 месяцев   |    .torrent скачан:  35 раз   |   
Раздают:  1  
   
Загрузка...
 
Автор Сообщение

Umakiro

avatar Umakiro


Joe Pass — Blues Dues (1984)

Жанр: Bop
Год издания диска: 1998
Издатель (лейбл): OJC/Pablo
Номер по каталогу: 00025218696425
Аудиокодек: FLAC (*.flac)
Тип рипа: tracks+.cue
Битрейт аудио: lossless
Продолжительность: 51:40
Риппер: durmoll
Наличие сканов в содержимом раздачи: да

Треклист:
01. Wave (5:53)
02. Blues In 'G' (7:05)
03. All The Things You Are (5:44)
04. 'Round Midnight (6:26)
05. Here's That Rainy Day (4:48)
06. Duke Ellington's Sophisticated Lady Melange (6:38)
07. Blues Dues (5:32)
08. Bluesette (3:44)
09. Honeysuckle Rose (5:51)

Joe Pass – guitar solo

Rec.: live at Long Beach (CA) City College, January 20, 1984.
 
 
Exact Audio Copy V0.99 prebeta 5 from 4. May 2009

EAC extraction logfile from 27. October 2011, 11:47

Joe Pass / Blues Dues

Used drive : PLEXTOR DVDR PX-806SA Adapter: 6 ID: 2

Read mode : SecureUtilize accurate stream : YesDefeat audio cache : YesMake use of C2 pointers : No

Read offset correction : 6Overread into Lead-In and Lead-Out : NoFill up missing offset samples with silence : YesDelete leading and trailing silent blocks : NoNull samples used in CRC calculations : YesUsed interface : Native Win32 interface for Win NT & 2000Gap handling : Appended to previous track

Used output format : Internal WAV RoutinesSample format : 44.100 Hz; 16 Bit; Stereo

TOC of the extracted CD

Track | Start | Length | Start sector | End sector --------------------------------------------------------- 1 | 0:00.00 | 5:52.62 | 0 | 26461 2 | 5:52.62 | 7:05.23 | 26462 | 58359 3 | 12:58.10 | 5:43.55 | 58360 | 84139 4 | 18:41.65 | 6:26.32 | 84140 | 113121 5 | 25:08.22 | 4:48.23 | 113122 | 134744 6 | 29:56.45 | 6:37.55 | 134745 | 164574 7 | 36:34.25 | 5:31.50 | 164575 | 189449 8 | 42:06.00 | 3:43.40 | 189450 | 206214 9 | 45:49.40 | 5:50.62 | 206215 | 232526

Track 1

Filename C:\rip\01 - Wave.wav

Pre-gap length 0:00:02.00

Peak level 73.2 % Track quality 100.0 % Test CRC DA4F7AA7 Copy CRC DA4F7AA7 Track not present in AccurateRip database Copy OK

Track 2

Filename C:\rip\02 - Blues In 'G'.wav

Peak level 90.3 % Track quality 100.0 % Test CRC F097F177 Copy CRC F097F177 Track not present in AccurateRip database Copy OK

Track 3

Filename C:\rip\03 - All The Things You Are.wav

Peak level 94.7 % Track quality 100.0 % Test CRC E5A4C6FF Copy CRC E5A4C6FF Track not present in AccurateRip database Copy OK

Track 4

Filename C:\rip\04 - 'Round Midnight.wav

Peak level 83.2 % Track quality 100.0 % Test CRC EC7FC9D0 Copy CRC EC7FC9D0 Track not present in AccurateRip database Copy OK

Track 5

Filename C:\rip\05 - Here's That Rainy Day.wav

Peak level 76.9 % Track quality 100.0 % Test CRC 78BCDB68 Copy CRC 78BCDB68 Track not present in AccurateRip database Copy OK

Track 6

Filename C:\rip\06 - Duke Ellington's Sophisticated Lady Melange.wav

Peak level 69.7 % Track quality 100.0 % Test CRC BD9E0FE4 Copy CRC BD9E0FE4 Track not present in AccurateRip database Copy OK

Track 7

Filename C:\rip\07 - Blues Dues.wav

Peak level 68.9 % Track quality 100.0 % Test CRC FD9DBD79 Copy CRC FD9DBD79 Track not present in AccurateRip database Copy OK

Track 8

Filename C:\rip\08 - Bluesette.wav

Peak level 72.4 % Track quality 100.0 % Test CRC 390543A3 Copy CRC 390543A3 Track not present in AccurateRip database Copy OK

Track 9

Filename C:\rip\09 - Honeysuckle Rose.wav

Peak level 74.7 % Track quality 100.0 % Test CRC CE7D514F Copy CRC CE7D514F Track not present in AccurateRip database Copy OK

None of the tracks are present in the AccurateRip database

No errors occurred

End of status report
 
REM DATE 1984REM GENRE JazzREM DISCID 760C1C09REM COMMENT "ExactAudioCopy v0.99pb5"PERFORMER "Joe Pass"TITLE "Blues Dues"FILE "01 - Wave.flac" WAVE TRACK 01 AUDIO TITLE "Wave" PERFORMER "Joe Pass" INDEX 01 00:00:00FILE "02 - Blues In 'G'.flac" WAVE TRACK 02 AUDIO TITLE "Blues In 'G'" PERFORMER "Joe Pass" INDEX 01 00:00:00FILE "03 - All The Things You Are.flac" WAVE TRACK 03 AUDIO TITLE "All The Things You Are" PERFORMER "Joe Pass" INDEX 01 00:00:00FILE "04 - 'Round Midnight.flac" WAVE TRACK 04 AUDIO TITLE "'Round Midnight" PERFORMER "Joe Pass" INDEX 01 00:00:00FILE "05 - Here's That Rainy Day.flac" WAVE TRACK 05 AUDIO TITLE "Here's That Rainy Day" PERFORMER "Joe Pass" INDEX 01 00:00:00FILE "06 - Duke Ellington's Sophisticated Lady Melange.flac" WAVE TRACK 06 AUDIO TITLE "Duke Ellington's Sophisticated Lady Melange" PERFORMER "Joe Pass" INDEX 01 00:00:00FILE "07 - Blues Dues.flac" WAVE TRACK 07 AUDIO TITLE "Blues Dues" PERFORMER "Joe Pass" INDEX 01 00:00:00FILE "08 - Bluesette.flac" WAVE TRACK 08 AUDIO TITLE "Bluesette" PERFORMER "Joe Pass" INDEX 01 00:00:00FILE "09 - Honeysuckle Rose.flac" WAVE TRACK 09 AUDIO TITLE "Honeysuckle Rose" PERFORMER "Joe Pass" INDEX 01 00:00:00


Трекер:  [ 27-Янв-2012 16:24 ]

  

Скачать .torrent

Размер .torrent файла 20 KB


Размер: 240 MB
Хэш (hash) релиза: 19f16ccd82a0427c45c9818cf1825e92c1189a6b

Еще никто не оставлял запись к записи скачать торрент Joe Pass — Blues Dues . Будь первым!

!Обратная связь