Скачать через торрент музыку Nancy Wilson - The Best Of Nancy Wilson - 1996, FLAC бесплатно без регистрации torrent

Если у вас наблюдаются проблемы со скриншотами, переходом по ссылками, скачиванием торрентов - проблемы в блокировщике рекламы AdBlock. #хорошегоДня!


Статистика раздачи
Размер:  274 MB   |    Зарегистрирован:  5 лет 8 месяцев   |    .torrent скачан:  35 раз   |   
Раздают:  1  
   
Загрузка...
 
Автор Сообщение

Umakiro

avatar Umakiro


Nancy Wilson - The Best Of Nancy Wilson

Жанр: Vocal Jazz
Год издания диска: 1996
Издатель (лейбл): Capitol
Номер по каталогу: CDP 7243 8 53921 2 2
Аудиокодек: FLAC (*.flac)
Тип рипа: tracks+.cue
Битрейт аудио: lossless
Продолжительность: 47:06
Источник (релизер): Oceandrop
Наличие сканов в содержимом раздачи: да
Треклист:
01. Like Someone In Love (2:20)
02. I Wish I Didn't Love You So (3:24)
03. Dearly Beloved (2:13)
04. Just For A Thrill (2:34)
05. I've Got Your Number (2:16)
06. In A Sentimental Mood (2:57)
07. Getting To Know You (2:34)
08. Call It Stormy Monday (2:27)
09. He's My Guy (2:28)
10. You're Gonna Hear From Me (2:53)
11. People (3:43)
12. Sufferin' With The Blues (2:12)
13. Wave (2:47)
14. Unchain My Heart (2:07)
15. Never Will I Marry (2:20)
16. Green Dolphin Street (2:23)
17. You Don't Know Me (2:27)
18. A Good Man Is Hard To Find (2:59)
 
Exact Audio Copy V1.0 beta 1 from 15. November 2010

EAC extraction logfile from 27. October 2011, 18:16

Nancy Wilson / The Jazz and Blues Sessions ''The Best Of'' {Capitol CDP-7243-8-53921-2-2}

Used drive : ASUS DRW-1608P3S Adapter: 0 ID: 1

Read mode : SecureUtilize accurate stream : YesDefeat audio cache : YesMake use of C2 pointers : No

Read offset correction : 48Overread into Lead-In and Lead-Out : NoFill up missing offset samples with silence : YesDelete leading and trailing silent blocks : NoNull samples used in CRC calculations : YesUsed interface : Native Win32 interface for Win NT & 2000Gap handling : Appended to previous track

Used output format : Internal WAV RoutinesSample format : 44.100 Hz; 16 Bit; Stereo

TOC of the extracted CD

Track | Start | Length | Start sector | End sector --------------------------------------------------------- 1 | 0:00.00 | 2:20.30 | 0 | 10529 2 | 2:20.30 | 3:24.37 | 10530 | 25866 3 | 5:44.67 | 2:13.35 | 25867 | 35876 4 | 7:58.27 | 2:33.55 | 35877 | 47406 5 | 10:32.07 | 2:16.18 | 47407 | 57624 6 | 12:48.25 | 2:57.00 | 57625 | 70899 7 | 15:45.25 | 2:34.15 | 70900 | 82464 8 | 18:19.40 | 2:26.52 | 82465 | 93466 9 | 20:46.17 | 2:28.35 | 93467 | 104601 10 | 23:14.52 | 2:52.48 | 104602 | 117549 11 | 26:07.25 | 3:42.55 | 117550 | 134254 12 | 29:50.05 | 2:12.20 | 134255 | 144174 13 | 32:02.25 | 2:47.30 | 144175 | 156729 14 | 34:49.55 | 2:06.52 | 156730 | 166231 15 | 36:56.32 | 2:19.55 | 166232 | 176711 16 | 39:16.12 | 2:22.65 | 176712 | 187426 17 | 41:39.02 | 2:27.15 | 187427 | 198466 18 | 44:06.17 | 2:59.33 | 198467 | 211924

Track 1

Filename H:\EAC@Oceandrop Rips\Nancy Wilson - The Jazz and Blues Sessions ''The Best Of'' {Capitol}\01 - Like Someone in Love.wav

Pre-gap length 0:00:02.00

Peak level 66.9 % Extraction speed 4.1 X Track quality 100.0 % Test CRC B97D7340 Copy CRC B97D7340 Accurately ripped (confidence 2) [1E8449C9] Copy OK

Track 2

Filename H:\EAC@Oceandrop Rips\Nancy Wilson - The Jazz and Blues Sessions ''The Best Of'' {Capitol}\02 - I Wish I Didn't Love You So.wav

Pre-gap length 0:00:01.55

Peak level 64.4 % Extraction speed 4.7 X Track quality 100.0 % Test CRC B3A8EE6F Copy CRC B3A8EE6F Accurately ripped (confidence 2) [F55DA68B] Copy OK

Track 3

Filename H:\EAC@Oceandrop Rips\Nancy Wilson - The Jazz and Blues Sessions ''The Best Of'' {Capitol}\03 - Dearly Beloved.wav

Pre-gap length 0:00:01.55

Peak level 62.4 % Extraction speed 3.8 X Track quality 99.9 % Test CRC 47A763D8 Copy CRC 47A763D8 Accurately ripped (confidence 2) [D11CD4DA] Copy OK

Track 4

Filename H:\EAC@Oceandrop Rips\Nancy Wilson - The Jazz and Blues Sessions ''The Best Of'' {Capitol}\04 - Just for a Thrill.wav

Pre-gap length 0:00:01.70

Peak level 76.7 % Extraction speed 4.2 X Track quality 99.9 % Test CRC BECAFC48 Copy CRC BECAFC48 Accurately ripped (confidence 2) [824458C7] Copy OK

Track 5

Filename H:\EAC@Oceandrop Rips\Nancy Wilson - The Jazz and Blues Sessions ''The Best Of'' {Capitol}\05 - I've Got Your Number.wav

Pre-gap length 0:00:02.57

Peak level 56.2 % Extraction speed 5.1 X Track quality 100.0 % Test CRC 93F0C272 Copy CRC 93F0C272 Accurately ripped (confidence 2) [934DDFFD] Copy OK

Track 6

Filename H:\EAC@Oceandrop Rips\Nancy Wilson - The Jazz and Blues Sessions ''The Best Of'' {Capitol}\06 - In a Sentimental Mood.wav

Pre-gap length 0:00:02.23

Peak level 98.8 % Extraction speed 4.7 X Track quality 99.9 % Test CRC E297E5FE Copy CRC E297E5FE Accurately ripped (confidence 2) [304A967A] Copy OK

Track 7

Filename H:\EAC@Oceandrop Rips\Nancy Wilson - The Jazz and Blues Sessions ''The Best Of'' {Capitol}\07 - Getting to Know You.wav

Pre-gap length 0:00:02.20

Peak level 60.1 % Extraction speed 4.5 X Track quality 100.0 % Test CRC FC55913C Copy CRC FC55913C Accurately ripped (confidence 2) [6AE13354] Copy OK

Track 8

Filename H:\EAC@Oceandrop Rips\Nancy Wilson - The Jazz and Blues Sessions ''The Best Of'' {Capitol}\08 - Call it Stormy Monday.wav

Pre-gap length 0:00:01.45

Peak level 79.1 % Extraction speed 5.8 X Track quality 100.0 % Test CRC 67BB6705 Copy CRC 67BB6705 Accurately ripped (confidence 2) [120FD5AB] Copy OK

Track 9

Filename H:\EAC@Oceandrop Rips\Nancy Wilson - The Jazz and Blues Sessions ''The Best Of'' {Capitol}\09 - He's My Guy.wav

Pre-gap length 0:00:02.27

Peak level 87.2 % Extraction speed 5.9 X Track quality 100.0 % Test CRC 539D37B4 Copy CRC 539D37B4 Accurately ripped (confidence 2) [8779F940] Copy OK

Track 10

Filename H:\EAC@Oceandrop Rips\Nancy Wilson - The Jazz and Blues Sessions ''The Best Of'' {Capitol}\10 - You're Gonna Hear from Me.wav

Pre-gap length 0:00:01.70

Peak level 71.1 % Extraction speed 6.4 X Track quality 100.0 % Test CRC 9EDA629E Copy CRC 9EDA629E Accurately ripped (confidence 2) [7C6220DA] Copy OK

Track 11

Filename H:\EAC@Oceandrop Rips\Nancy Wilson - The Jazz and Blues Sessions ''The Best Of'' {Capitol}\11 - People.wav

Pre-gap length 0:00:02.30

Peak level 83.9 % Extraction speed 6.9 X Track quality 100.0 % Test CRC 74C2C7F1 Copy CRC 74C2C7F1 Accurately ripped (confidence 2) [F8C3BB89] Copy OK

Track 12

Filename H:\EAC@Oceandrop Rips\Nancy Wilson - The Jazz and Blues Sessions ''The Best Of'' {Capitol}\12 - Sufferin' with The Blues.wav

Pre-gap length 0:00:02.33

Peak level 81.8 % Extraction speed 6.5 X Track quality 100.0 % Test CRC 4E7E5233 Copy CRC 4E7E5233 Accurately ripped (confidence 2) [57720050] Copy OK

Track 13

Filename H:\EAC@Oceandrop Rips\Nancy Wilson - The Jazz and Blues Sessions ''The Best Of'' {Capitol}\13 - Wave.wav

Pre-gap length 0:00:02.10

Peak level 54.8 % Extraction speed 6.9 X Track quality 100.0 % Test CRC 6E6554B5 Copy CRC 6E6554B5 Accurately ripped (confidence 2) [1BF62CEC] Copy OK

Track 14

Filename H:\EAC@Oceandrop Rips\Nancy Wilson - The Jazz and Blues Sessions ''The Best Of'' {Capitol}\14 - Unchain My Heart.wav

Pre-gap length 0:00:02.03

Peak level 67.8 % Extraction speed 6.6 X Track quality 100.0 % Test CRC 09843FF6 Copy CRC 09843FF6 Accurately ripped (confidence 2) [D093883B] Copy OK

Track 15

Filename H:\EAC@Oceandrop Rips\Nancy Wilson - The Jazz and Blues Sessions ''The Best Of'' {Capitol}\15 - Never Will I Marry.wav

Pre-gap length 0:00:01.72

Peak level 68.7 % Extraction speed 6.9 X Track quality 100.0 % Test CRC 22B4FB09 Copy CRC 22B4FB09 Accurately ripped (confidence 2) [CA82D69A] Copy OK

Track 16

Filename H:\EAC@Oceandrop Rips\Nancy Wilson - The Jazz and Blues Sessions ''The Best Of'' {Capitol}\16 - Green Dolphin Street.wav

Pre-gap length 0:00:02.00

Peak level 71.5 % Extraction speed 7.0 X Track quality 100.0 % Test CRC 06D19BD0 Copy CRC 06D19BD0 Accurately ripped (confidence 2) [8BFF7F65] Copy OK

Track 17

Filename H:\EAC@Oceandrop Rips\Nancy Wilson - The Jazz and Blues Sessions ''The Best Of'' {Capitol}\17 - You Don't Know Me.wav

Pre-gap length 0:00:01.70

Peak level 61.5 % Extraction speed 7.1 X Track quality 100.0 % Test CRC BA2AB064 Copy CRC BA2AB064 Accurately ripped (confidence 2) [FEE368EA] Copy OK

Track 18

Filename H:\EAC@Oceandrop Rips\Nancy Wilson - The Jazz and Blues Sessions ''The Best Of'' {Capitol}\18 - A Good Man is Hard to Find.wav

Pre-gap length 0:00:02.35

Peak level 61.5 % Extraction speed 7.6 X Track quality 100.0 % Test CRC C516E9C8 Copy CRC C516E9C8 Accurately ripped (confidence 2) [900591AF] Copy OK

All tracks accurately ripped

No errors occurred

End of status report

==== Log checksum 1975A027462C6959F2C82E4628891BBAB11F065E5F984F047E323974289D9A1A ====
 
REM GENRE JazzREM DATE 1996REM DISCID F50B0912REM COMMENT "ExactAudioCopy v1.0b1"PERFORMER "Nancy Wilson"TITLE "The Best Of Nancy Wilson - The Jazz And Blues Sessions"FILE "01. Like Someone In Love.flac" WAVE TRACK 01 AUDIO TITLE "Like Someone In Love" PERFORMER "Nancy Wilson" INDEX 01 00:00:00 TRACK 02 AUDIO TITLE "I Wish I Didn't Love You So" PERFORMER "Nancy Wilson" INDEX 00 02:18:50FILE "02. I Wish I Didn't Love You So.flac" WAVE INDEX 01 00:00:00 TRACK 03 AUDIO TITLE "Dearly Beloved" PERFORMER "Nancy Wilson" INDEX 00 03:22:57FILE "03. Dearly Beloved.flac" WAVE INDEX 01 00:00:00 TRACK 04 AUDIO TITLE "Just For A Thrill" PERFORMER "Nancy Wilson" INDEX 00 02:11:40FILE "04. Just For A Thrill.flac" WAVE INDEX 01 00:00:00 TRACK 05 AUDIO TITLE "I've Got Your Number" PERFORMER "Nancy Wilson" INDEX 00 02:30:73FILE "05. I've Got Your Number.flac" WAVE INDEX 01 00:00:00 TRACK 06 AUDIO TITLE "In A Sentimental Mood" PERFORMER "Nancy Wilson" INDEX 00 02:13:70FILE "06. In A Sentimental Mood.flac" WAVE INDEX 01 00:00:00 TRACK 07 AUDIO TITLE "Getting To Know You" PERFORMER "Nancy Wilson" INDEX 00 02:54:55FILE "07. Getting To Know You.flac" WAVE INDEX 01 00:00:00 TRACK 08 AUDIO TITLE "Call It Stormy Monday" PERFORMER "Nancy Wilson" INDEX 00 02:32:45FILE "08. Call It Stormy Monday.flac" WAVE INDEX 01 00:00:00 TRACK 09 AUDIO TITLE "He's My Guy" PERFORMER "Nancy Wilson" INDEX 00 02:24:25FILE "09. He's My Guy.flac" WAVE INDEX 01 00:00:00 TRACK 10 AUDIO TITLE "You're Gonna Hear From Me" PERFORMER "Nancy Wilson" INDEX 00 02:26:40FILE "10. You're Gonna Hear From Me.flac" WAVE INDEX 01 00:00:00 TRACK 11 AUDIO TITLE "People" PERFORMER "Nancy Wilson" INDEX 00 02:50:18FILE "11. People.flac" WAVE INDEX 01 00:00:00 TRACK 12 AUDIO TITLE "Sufferin' With The Blues" PERFORMER "Nancy Wilson" INDEX 00 03:40:22FILE "12. Sufferin' With The Blues.flac" WAVE INDEX 01 00:00:00 TRACK 13 AUDIO TITLE "Wave" PERFORMER "Nancy Wilson" INDEX 00 02:10:10FILE "13. Wave.flac" WAVE INDEX 01 00:00:00 TRACK 14 AUDIO TITLE "Unchain My Heart" PERFORMER "Nancy Wilson" INDEX 00 02:45:27FILE "14. Unchain My Heart.flac" WAVE INDEX 01 00:00:00 TRACK 15 AUDIO TITLE "Never Will I Marry" PERFORMER "Nancy Wilson" INDEX 00 02:04:55FILE "15. Never Will I Marry.flac" WAVE INDEX 01 00:00:00 TRACK 16 AUDIO TITLE "Green Dolphin Street" PERFORMER "Nancy Wilson" INDEX 00 02:17:55FILE "16. Green Dolphin Street.flac" WAVE INDEX 01 00:00:00 TRACK 17 AUDIO TITLE "You Don't Know Me" PERFORMER "Nancy Wilson" INDEX 00 02:20:70FILE "17. You Don't Know Me.flac" WAVE INDEX 01 00:00:00 TRACK 18 AUDIO TITLE "A Good Man Is Hard To Find" PERFORMER "Nancy Wilson" INDEX 00 02:24:55FILE "18. A Good Man Is Hard To Find.flac" WAVE INDEX 01 00:00:00


Трекер:  [ 27-Янв-2012 16:23 ]

  

Скачать .torrent

Размер .torrent файла 13 KB


Размер: 274 MB
Хэш (hash) релиза: 025b5e4d47fc37440d3147fa2d7ef04712c50e09

Еще никто не оставлял запись к записи скачать торрент Nancy Wilson - The Best Of Nancy Wilson - 1996, FLAC . Будь первым!

!Обратная связь