Скачать через торрент музыку Stephane Grappelli - Stardust бесплатно без регистрации torrent

Если у вас наблюдаются проблемы со скриншотами, переходом по ссылками, скачиванием торрентов - проблемы в блокировщике рекламы AdBlock. #хорошегоДня!


Статистика раздачи
Размер:  259 MB   |    Зарегистрирован:  5 лет 8 месяцев   |    .torrent скачан:  42 раза   |   
Раздают:  1  
   
Загрузка...
 
Автор Сообщение

Umakiro

avatar Umakiro


Stephane Grappelli - Stardust (1973)

Жанр: Gypsy
Год издания диска: 1988
Издатель (лейбл): Black Lion
Номер по каталогу: BLCD760117
Аудиокодек: FLAC (*.flac)
Тип рипа: tracks+.cue
Битрейт аудио: lossless
Продолжительность: 54:41
Источник (релизер): tiburon
Наличие сканов в содержимом раздачи: да
Треклист:
01. Stardust (take 1) (4:02)
02. The Nearness Of You (take 7) (3:55)
03. Tournesol (take 6) (3:16)
04. Greensleeves (take 10) (1:41)
05. You Go To My Head (4:45)
06. Nature Boy (3:33)
07. Can't Help Loving That Man O'Mine (3:49)
08. We'll Be Together Again (4:29)
09. The Talk Of The Town (4:08)
10. Amanda (4:32)
11. I Saw Stars (3:24)
12. Greensleeves (take 17) (2:05)
13. Tournesol (take 8) (3:18)
14. The Nearness Of You (take 8) (3:50)
15. Stardust (take 2) (3:55)
 
Exact Audio Copy V0.99 prebeta 4 from 23. January 2008

EAC extraction logfile from 23. November 2009, 23:57

Stephane Grappelli / Stardust

Used drive : TSSTcorpCD/DVDW TS-L532M Adapter: 1 ID: 1

Read mode : SecureUtilize accurate stream : YesDefeat audio cache : YesMake use of C2 pointers : No

Read offset correction : 116Overread into Lead-In and Lead-Out : NoFill up missing offset samples with silence : YesDelete leading and trailing silent blocks : NoNull samples used in CRC calculations : NoUsed interface : Native Win32 interface for Win NT & 2000Gap handling : Appended to previous track

Used output format : User Defined EncoderSelected bitrate : 1024 kBit/sQuality : HighAdd ID3 tag : NoCommand line compressor : C:\Program Files\Exact Audio Copy\FLAC\FLAC.EXEAdditional command line options : -6 -V -T "ARTIST=%a" -T "TITLE=%t" -T "ALBUM=%g" -T "DATE=%y" -T "TRACKNUMBER=%n" -T "GENRE=%m" -T "COMMENT=%e" %s -o %d

TOC of the extracted CD

Track | Start | Length | Start sector | End sector --------------------------------------------------------- 1 | 0:00.00 | 4:01.43 | 0 | 18117 2 | 4:01.43 | 3:55.12 | 18118 | 35754 3 | 7:56.55 | 3:15.38 | 35755 | 50417 4 | 11:12.18 | 1:40.47 | 50418 | 57964 5 | 12:52.65 | 4:45.13 | 57965 | 79352 6 | 17:38.03 | 3:32.50 | 79353 | 95302 7 | 21:10.53 | 3:49.37 | 95303 | 112514 8 | 25:00.15 | 4:29.28 | 112515 | 132717 9 | 29:29.43 | 4:07.57 | 132718 | 151299 10 | 33:37.25 | 4:31.50 | 151300 | 171674 11 | 38:09.00 | 3:24.25 | 171675 | 186999 12 | 41:33.25 | 2:04.50 | 187000 | 196349 13 | 43:38.00 | 3:17.43 | 196350 | 211167 14 | 46:55.43 | 3:49.47 | 211168 | 228389 15 | 50:45.15 | 3:55.23 | 228390 | 246037

Track 1

Filename F:\Torrents\Upload what\Stardust\01. Stardust (take 1).wav

Pre-gap length 0:00:02.00

Peak level 28.3 % Track quality 100.0 % Test CRC 480F4B78 Copy CRC 480F4B78 Accurately ripped (confidence 2) [394FF4E0] Copy OK

Track 2

Filename F:\Torrents\Upload what\Stardust\02. The nearness of you (take 7).wav

Pre-gap length 0:00:04.53

Peak level 27.4 % Track quality 100.0 % Test CRC CF515D76 Copy CRC CF515D76 Track not present in AccurateRip database Copy OK

Track 3

Filename F:\Torrents\Upload what\Stardust\03. Tournesol (take 6).wav

Pre-gap length 0:00:01.65

Peak level 25.3 % Track quality 100.0 % Test CRC CC02DEC0 Copy CRC CC02DEC0 Accurately ripped (confidence 2) [5B77FEDD] Copy OK

Track 4

Filename F:\Torrents\Upload what\Stardust\04. Greensleeves (take 10).wav

Pre-gap length 0:00:04.25

Peak level 25.4 % Track quality 99.8 % Test CRC C4262638 Copy CRC C4262638 Accurately ripped (confidence 2) [24661E7E] Copy OK

Track 5

Filename F:\Torrents\Upload what\Stardust\05. You go to my head.wav

Pre-gap length 0:00:06.10

Peak level 16.9 % Track quality 100.0 % Test CRC 2E57C81A Copy CRC 2E57C81A Accurately ripped (confidence 2) [1AFDBE10] Copy OK

Track 6

Filename F:\Torrents\Upload what\Stardust\06. Nature boy.wav

Pre-gap length 0:00:05.15

Peak level 21.2 % Track quality 100.0 % Test CRC CBF81A61 Copy CRC CBF81A61 Accurately ripped (confidence 2) [365D9548] Copy OK

Track 7

Filename F:\Torrents\Upload what\Stardust\07. Can't help loving that man o'mine.wav

Pre-gap length 0:00:07.30

Peak level 19.5 % Track quality 100.0 % Test CRC 709A95AB Copy CRC 709A95AB Accurately ripped (confidence 2) [14100482] Copy OK

Track 8

Filename F:\Torrents\Upload what\Stardust\08. We'll be together again.wav

Pre-gap length 0:00:05.42

Peak level 19.5 % Track quality 100.0 % Test CRC 759305E9 Copy CRC 759305E9 Accurately ripped (confidence 2) [EE2E91F4] Copy OK

Track 9

Filename F:\Torrents\Upload what\Stardust\09. The talk of the town.wav

Pre-gap length 0:00:05.70

Peak level 21.1 % Track quality 100.0 % Test CRC B20F5DF8 Copy CRC B20F5DF8 Accurately ripped (confidence 2) [73281602] Copy OK

Track 10

Filename F:\Torrents\Upload what\Stardust\10. Amanda.wav

Pre-gap length 0:00:04.45

Peak level 21.7 % Track quality 100.0 % Test CRC 65230652 Copy CRC 65230652 Accurately ripped (confidence 2) [C57DB1C3] Copy OK

Track 11

Filename F:\Torrents\Upload what\Stardust\11. I saw stars.wav

Pre-gap length 0:00:07.62

Peak level 23.4 % Track quality 100.0 % Test CRC FD19D685 Copy CRC FD19D685 Accurately ripped (confidence 2) [9B7A59F0] Copy OK

Track 12

Filename F:\Torrents\Upload what\Stardust\12. Greensleeves (take 17).wav

Pre-gap length 0:00:06.42

Peak level 16.6 % Track quality 100.0 % Test CRC 2188C2F7 Copy CRC 2188C2F7 Accurately ripped (confidence 2) [5FC1F103] Copy OK

Track 13

Filename F:\Torrents\Upload what\Stardust\13. Tournesol (take 8).wav

Pre-gap length 0:00:06.07

Peak level 16.6 % Track quality 99.9 % Test CRC 9C283D4D Copy CRC 9C283D4D Accurately ripped (confidence 2) [C1AA341A] Copy OK

Track 14

Filename F:\Torrents\Upload what\Stardust\14. The nearness of you (take 8).wav

Pre-gap length 0:00:09.28

Peak level 21.6 % Track quality 100.0 % Test CRC A7473653 Copy CRC A7473653 Track not present in AccurateRip database Copy OK

Track 15

Filename F:\Torrents\Upload what\Stardust\15. Stardust (take 2).wav

Pre-gap length 0:00:06.12

Peak level 15.1 % Track quality 100.0 % Test CRC A4564FFF Copy CRC A4564FFF Accurately ripped (confidence 2) [0DACB9F9] Copy OK

13 track(s) accurately ripped 2 track(s) not present in the AccurateRip database

Some tracks could not be verified as accurate

No errors occurred

End of status report
 
REM GENRE JazzREM DATE 1988REM DISCID C40CD00FREM COMMENT "ExactAudioCopy v0.99pb4"PERFORMER "Stephane Grappelli"TITLE "Stardust"FILE "01. Stardust (take 1).flac" WAVE TRACK 01 AUDIO TITLE "Stardust (take 1)" PERFORMER "Stephane Grappelli" FLAGS PRE INDEX 01 00:00:00 TRACK 02 AUDIO TITLE "The Nearness Of You (take 7)" PERFORMER "Stephane Grappelli" FLAGS PRE INDEX 00 03:56:65FILE "02. The Nearness Of You (take 7).flac" WAVE INDEX 01 00:00:00 TRACK 03 AUDIO TITLE "Tournesol (take 6)" PERFORMER "Stephane Grappelli" FLAGS PRE INDEX 00 03:53:22FILE "03. Tournesol (take 6).flac" WAVE INDEX 01 00:00:00 TRACK 04 AUDIO TITLE "Greensleeves (take 10)" PERFORMER "Stephane Grappelli" FLAGS PRE INDEX 00 03:11:13FILE "04. Greensleeves (take 10).flac" WAVE INDEX 01 00:00:00 TRACK 05 AUDIO TITLE "You Go To My Head" PERFORMER "Stephane Grappelli" FLAGS PRE INDEX 00 01:34:37FILE "05. You Go To My Head.flac" WAVE INDEX 01 00:00:00 TRACK 06 AUDIO TITLE "Nature Boy" PERFORMER "Stephane Grappelli" FLAGS PRE INDEX 00 04:39:73FILE "06. Nature Boy.flac" WAVE INDEX 01 00:00:00 TRACK 07 AUDIO TITLE "Can't Help Loving That Man O'Mine" PERFORMER "Stephane Grappelli" FLAGS PRE INDEX 00 03:25:20FILE "07. Can't Help Loving That Man O'Mine.flac" WAVE INDEX 01 00:00:00 TRACK 08 AUDIO TITLE "We'll Be Together Again" PERFORMER "Stephane Grappelli" FLAGS PRE INDEX 00 03:43:70FILE "08. We'll Be Together Again.flac" WAVE INDEX 01 00:00:00 TRACK 09 AUDIO TITLE "The Talk Of The Town" PERFORMER "Stephane Grappelli" FLAGS PRE INDEX 00 04:23:33FILE "09. The Talk Of The Town.flac" WAVE INDEX 01 00:00:00 TRACK 10 AUDIO TITLE "Amanda" PERFORMER "Stephane Grappelli" FLAGS PRE INDEX 00 04:03:12FILE "10. Amanda.flac" WAVE INDEX 01 00:00:00 TRACK 11 AUDIO TITLE "I Saw Stars" PERFORMER "Stephane Grappelli" FLAGS PRE INDEX 00 04:23:63FILE "11. I Saw Stars.flac" WAVE INDEX 01 00:00:00 TRACK 12 AUDIO TITLE "Greensleeves (take 17)" PERFORMER "Stephane Grappelli" FLAGS PRE INDEX 00 03:17:58FILE "12. Greensleeves (take 17).flac" WAVE INDEX 01 00:00:00 TRACK 13 AUDIO TITLE "Tournesol (take 8)" PERFORMER "Stephane Grappelli" FLAGS PRE INDEX 00 01:58:43FILE "13. Tournesol (take 8).flac" WAVE INDEX 01 00:00:00 TRACK 14 AUDIO TITLE "The Nearness Of You (take 8)" PERFORMER "Stephane Grappelli" FLAGS PRE INDEX 00 03:08:15FILE "14. The Nearness Of You (take 8).flac" WAVE INDEX 01 00:00:00 TRACK 15 AUDIO TITLE "Stardust (take 2)" PERFORMER "Stephane Grappelli" FLAGS PRE INDEX 00 03:43:35FILE "15. Stardust (take 2).flac" WAVE INDEX 01 00:00:00


Трекер:  [ 27-Янв-2012 16:23 ]

  

Скачать .torrent

Размер .torrent файла 12 KB


Размер: 259 MB
Хэш (hash) релиза: d3214a2bede94ed9c866ea763ab5de3876150c43

Еще никто не оставлял запись к записи скачать торрент Stephane Grappelli - Stardust . Будь первым!

!Обратная связь