Скачать через торрент музыку Dionne Warwick — Here Where There Is Love бесплатно без регистрации torrent

Если у вас наблюдаются проблемы со скриншотами, переходом по ссылками, скачиванием торрентов - проблемы в блокировщике рекламы AdBlock. #хорошегоДня!


Статистика раздачи
Размер:  236 MB   |    Зарегистрирован:  5 лет 8 месяцев   |    .torrent скачан:  39 раз   |   
Раздают:  1  
   
Загрузка...
 
Автор Сообщение

Umakiro

avatar Umakiro


Dionne Warwick — Here Where There Is Love (1967)

Жанр: Pop, Vocal
Год издания диска: 1994
Издатель (лейбл): Disky
Номер по каталогу: DCD 5403
Аудиокодек: FLAC (*.flac)
Тип рипа: tracks+.cue
Битрейт аудио: lossless
Продолжительность: 44:40
Источник: вата
Наличие сканов в содержимом раздачи: нет

Треклист:
01. Go With Love (2:48)
02. What The World Needs Now Is Love (3:09)
03. I Just Don't Know What To Do With Myself (2:47)
04. Here Where There Is Love (2:27)
05. Trains And Boats And Planes (2:49)
06. Alfie (2:46)
07. As Long As He Needs Me (2:51)
08. I Wish You Love (2:49)
09. He Loves Me (2:23)
10. Please Make Him Love Me (2:22)
11. Make The Night A Little Longer (2:25)
12. A House Is Not A Home (3:06)
13. Summertime (2:57)
14. You'll Never Walk Alone (4:06)
15. I Never Knew What You Were Up To (2:38)
16. Blowin' In The Wind (2:17)
 
 
Exact Audio Copy V0.99 prebeta 4 from 23. January 2008

EAC extraction logfile from 25. June 2010, 9:42

Dionne Warwick / Here Where There Is Love

Used drive : PIONEER DVD-RW DVR-109 Adapter: 0 ID: 0

Read mode : SecureUtilize accurate stream : YesDefeat audio cache : YesMake use of C2 pointers : No

Read offset correction : 48Overread into Lead-In and Lead-Out : NoFill up missing offset samples with silence : YesDelete leading and trailing silent blocks : NoNull samples used in CRC calculations : YesUsed interface : Native Win32 interface for Win NT & 2000Gap handling : Appended to previous track

Used output format : User Defined EncoderSelected bitrate : 1024 kBit/sQuality : HighAdd ID3 tag : NoCommand line compressor : C:\Program Files\FLAC\flac.exeAdditional command line options : -V -8 -T "artist=%a" -T "title=%t" -T "album=%g" -T "date=%y" -T "tracknumber=%n" -T "genre=%m" %s

TOC of the extracted CD

Track | Start | Length | Start sector | End sector --------------------------------------------------------- 1 | 0:00.00 | 2:47.38 | 0 | 12562 2 | 2:47.38 | 3:08.55 | 12563 | 26717 3 | 5:56.18 | 2:46.52 | 26718 | 39219 4 | 8:42.70 | 2:26.60 | 39220 | 50229 5 | 11:09.55 | 2:48.45 | 50230 | 62874 6 | 13:58.25 | 2:46.10 | 62875 | 75334 7 | 16:44.35 | 2:51.28 | 75335 | 88187 8 | 19:35.63 | 2:49.07 | 88188 | 100869 9 | 22:24.70 | 2:23.03 | 100870 | 111597 10 | 24:47.73 | 2:22.35 | 111598 | 122282 11 | 27:10.33 | 2:25.07 | 122283 | 133164 12 | 29:35.40 | 3:05.53 | 133165 | 147092 13 | 32:41.18 | 2:56.55 | 147093 | 160347 14 | 35:37.73 | 4:06.37 | 160348 | 178834 15 | 39:44.35 | 2:38.05 | 178835 | 190689 16 | 42:22.40 | 2:17.10 | 190690 | 200974

Track 1

Filename c:\Torrent\FLAC\Dionne Warwick\Here Where There Is Love\01 - Go With Love.wav

Pre-gap length 0:00:02.00

Peak level 93.2 % Track quality 100.0 % Test CRC 1BF28C8A Copy CRC 1BF28C8A Copy OK

Track 2

Filename c:\Torrent\FLAC\Dionne Warwick\Here Where There Is Love\02 - What The World Needs Now Is Love.wav

Peak level 92.0 % Track quality 100.0 % Test CRC 5C6EBD10 Copy CRC 5C6EBD10 Copy OK

Track 3

Filename c:\Torrent\FLAC\Dionne Warwick\Here Where There Is Love\03 - I Just Don't Know What To Do With Myself.wav

Peak level 93.8 % Track quality 99.9 % Test CRC 9D065DFB Copy CRC 9D065DFB Copy OK

Track 4

Filename c:\Torrent\FLAC\Dionne Warwick\Here Where There Is Love\04 - Here Where There Is Love.wav

Peak level 90.4 % Track quality 99.9 % Test CRC 94F74BDF Copy CRC 94F74BDF Copy OK

Track 5

Filename c:\Torrent\FLAC\Dionne Warwick\Here Where There Is Love\05 - Trains And Boats And Planes.wav

Peak level 75.1 % Track quality 100.0 % Test CRC 288E6721 Copy CRC 288E6721 Copy OK

Track 6

Filename c:\Torrent\FLAC\Dionne Warwick\Here Where There Is Love\06 - Alfie.wav

Peak level 82.9 % Track quality 100.0 % Test CRC F822E1A1 Copy CRC F822E1A1 Copy OK

Track 7

Filename c:\Torrent\FLAC\Dionne Warwick\Here Where There Is Love\07 - As Long As He Needs Me.wav

Peak level 91.1 % Track quality 100.0 % Test CRC 19BE7C59 Copy CRC 19BE7C59 Copy OK

Track 8

Filename c:\Torrent\FLAC\Dionne Warwick\Here Where There Is Love\08 - I Wish You Love.wav

Peak level 69.6 % Track quality 100.0 % Test CRC 23B8D2A3 Copy CRC 23B8D2A3 Copy OK

Track 9

Filename c:\Torrent\FLAC\Dionne Warwick\Here Where There Is Love\09 - He Loves Me.wav

Peak level 90.2 % Track quality 100.0 % Test CRC 06418A9F Copy CRC 06418A9F Copy OK

Track 10

Filename c:\Torrent\FLAC\Dionne Warwick\Here Where There Is Love\10 - Please Make Him Love Me.wav

Peak level 94.2 % Track quality 99.9 % Test CRC 55F0B4E9 Copy CRC 55F0B4E9 Copy OK

Track 11

Filename c:\Torrent\FLAC\Dionne Warwick\Here Where There Is Love\11 - Make The Night A Little Longer.wav

Peak level 94.4 % Track quality 99.9 % Test CRC 61E1506C Copy CRC 61E1506C Copy OK

Track 12

Filename c:\Torrent\FLAC\Dionne Warwick\Here Where There Is Love\12 - A House Is Not A Home.wav

Peak level 91.7 % Track quality 100.0 % Test CRC E6D92712 Copy CRC E6D92712 Copy OK

Track 13

Filename c:\Torrent\FLAC\Dionne Warwick\Here Where There Is Love\13 - Summertime.wav

Peak level 85.0 % Track quality 100.0 % Test CRC 3C86D339 Copy CRC 3C86D339 Copy OK

Track 14

Filename c:\Torrent\FLAC\Dionne Warwick\Here Where There Is Love\14 - You'll Never Walk Alone.wav

Peak level 94.4 % Track quality 100.0 % Test CRC C9D82D6D Copy CRC C9D82D6D Copy OK

Track 15

Filename c:\Torrent\FLAC\Dionne Warwick\Here Where There Is Love\15 - I Never Knew What You Were Up To.wav

Peak level 85.2 % Track quality 99.9 % Test CRC 66D85021 Copy CRC 66D85021 Copy OK

Track 16

Filename c:\Torrent\FLAC\Dionne Warwick\Here Where There Is Love\16 - Blowin' In The Wind.wav

Peak level 91.0 % Track quality 99.9 % Test CRC E214A3B9 Copy CRC E214A3B9 Copy OK

No errors occurred

End of status report
 
REM DATE 1967REM DISCID E80A7710REM COMMENT "ExactAudioCopy v0.99pb4"FILE "01 - Go With Love.flac" WAVE TRACK 01 AUDIO INDEX 01 00:00:00FILE "02 - What The World Needs Now Is Love.flac" WAVE TRACK 02 AUDIO INDEX 01 00:00:00FILE "03 - I Just Don't Know What To Do With Myself.flac" WAVE TRACK 03 AUDIO INDEX 01 00:00:00FILE "04 - Here Where There Is Love.flac" WAVE TRACK 04 AUDIO INDEX 01 00:00:00FILE "05 - Trains And Boats And Planes.flac" WAVE TRACK 05 AUDIO INDEX 01 00:00:00FILE "06 - Alfie.flac" WAVE TRACK 06 AUDIO INDEX 01 00:00:00FILE "07 - As Long As He Needs Me.flac" WAVE TRACK 07 AUDIO INDEX 01 00:00:00FILE "08 - I Wish You Love.flac" WAVE TRACK 08 AUDIO INDEX 01 00:00:00FILE "09 - He Loves Me.flac" WAVE TRACK 09 AUDIO INDEX 01 00:00:00FILE "10 - Please Make Him Love Me.flac" WAVE TRACK 10 AUDIO INDEX 01 00:00:00FILE "11 - Make The Night A Little Longer.flac" WAVE TRACK 11 AUDIO INDEX 01 00:00:00FILE "12 - A House Is Not A Home.flac" WAVE TRACK 12 AUDIO INDEX 01 00:00:00FILE "13 - Summertime.flac" WAVE TRACK 13 AUDIO INDEX 01 00:00:00FILE "14 - You'll Never Walk Alone.flac" WAVE TRACK 14 AUDIO INDEX 01 00:00:00FILE "15 - I Never Knew What You Were Up To.flac" WAVE TRACK 15 AUDIO INDEX 01 00:00:00FILE "16 - Blowin' In The Wind.flac" WAVE TRACK 16 AUDIO INDEX 01 00:00:00
 
[CUETools log; Date: 10.11.2011 9:38:06; Version: 2.0.9][CTDB TOCID: QVvrwaiiclZ0VbU3RxAhJxRUz0A-] disk not present in database.[AccurateRip ID: 0019f47a-01373dde-e80a7710] found.Track [ CRC ] Status 01 [411fa436] (1/1) Accurately ripped 02 [3366451a] (1/1) Accurately ripped 03 [37b2fcf3] (1/1) Accurately ripped 04 [59dc44da] (1/1) Accurately ripped 05 [0db34c8a] (1/1) Accurately ripped 06 [903403ae] (1/1) Accurately ripped 07 [56ed40b1] (1/1) Accurately ripped 08 [f41f9aa4] (1/1) Accurately ripped 09 [218a68ef] (1/1) Accurately ripped 10 [f1c9b12f] (1/1) Accurately ripped 11 [ed3a13cb] (1/1) Accurately ripped 12 [33ee72a7] (1/1) Accurately ripped 13 [8a416676] (1/1) Accurately ripped 14 [7121c3df] (1/1) Accurately ripped 15 [d2aa727c] (1/1) Accurately ripped 16 [b247b53a] (1/1) Accurately ripped

Track Peak [ CRC32 ] [W/O NULL] [ LOG ] -- 94,4 [FF679832] [2E684437] 01 93,2 [1BF28C8A] [28A30D68] CRC32 02 92,0 [5C6EBD10] [E553122E] CRC32 03 93,8 [9D065DFB] [5EC1466F] CRC32 04 90,4 [94F74BDF] [0CD2A62E] CRC32 05 75,1 [288E6721] [A94199BA] CRC32 06 82,9 [F822E1A1] [1845C77B] CRC32 07 91,1 [19BE7C59] [864401DD] CRC32 08 69,6 [23B8D2A3] [6F2C2B12] CRC32 09 90,2 [06418A9F] [D83804ED] CRC32 10 94,2 [55F0B4E9] [70417627] CRC32 11 94,4 [61E1506C] [96B68F83] CRC32 12 91,7 [E6D92712] [D66E7E94] CRC32 13 85,0 [3C86D339] [A8A95B12] CRC32 14 94,4 [C9D82D6D] [63A7E2F0] CRC32 15 85,2 [66D85021] [A1568075] CRC32 16 91,0 [E214A3B9] [EA7223A9] CRC32


Трекер:  [ 27-Янв-2012 16:22 ]

  

Скачать .torrent

Размер .torrent файла 20 KB


Размер: 236 MB
Хэш (hash) релиза: fae3ff2332bc805365ce56b4b7038bd7f843b8c2

Еще никто не оставлял запись к записи скачать торрент Dionne Warwick — Here Where There Is Love . Будь первым!

!Обратная связь