Скачать через торрент музыку Dionne Warwick — My Friends And Me — 2006, FLAC бесплатно без регистрации torrent

Если у вас наблюдаются проблемы со скриншотами, переходом по ссылками, скачиванием торрентов - проблемы в блокировщике рекламы AdBlock. #хорошегоДня!


Статистика раздачи
Размер:  322 MB   |    Зарегистрирован:  5 лет 8 месяцев   |    .torrent скачан:  39 раз   |   
Раздают:  1   Качают:  1  
   
Загрузка...
 
Автор Сообщение

Umakiro

avatar Umakiro


Dionne Warwick — My Friends And Me

Жанр: Pop, Vocal
Год издания диска: 2006
Издатель (лейбл): Concord
Аудиокодек: FLAC (*.flac)
Тип рипа: tracks+.cue
Битрейт аудио: lossless
Продолжительность: 49:22
Источник: web
Наличие сканов в содержимом раздачи: front, back

Треклист:
01. Walk On By (with Gloria Estefan) (2:56)
02. Message To Michael (with Cyndi Lauper) (3:00)
03. Close To You (with Mya) (4:02)
04. I'll Never Love This Way Again (with Gladys Knight) (4:21)
05. Raindrops Keep Fallin' On My Head (with Kelis) (2:28)
06. Déjà Vu (4:52)
07. I Say A Little Prayer (with Reba McEntire) (3:10)
08. Anyone Who Had A Heart (with Wynonna Judd) (3:46)
09. Then Came You (with Lisa Tucker) (3:28)
10. Wishin' And Hopin' (with Olivia Newton-John) (3:05)
11. Love Will Find A Way (with Cheyenne Elliott) (4:59)
12. The Windows Of The World (with Angie Stone, Chante Moore, Deborah Cox, Da Brat) (3:28)
13. Do You Know The Way To San Jose (with Celia Cruz) (5:47)
 
Exact Audio Copy V0.99 prebeta 5 from 4. May 2009

EAC extraction logfile from 13. January 2010, 20:21

Dionne Warwick / My Friends And Me

Used drive : HL-DT-STDVD-ROM GDR8163B Adapter: 2 ID: 0

Read mode : SecureUtilize accurate stream : YesDefeat audio cache : YesMake use of C2 pointers : No

Read offset correction : 102Overread into Lead-In and Lead-Out : NoFill up missing offset samples with silence : YesDelete leading and trailing silent blocks : NoNull samples used in CRC calculations : YesUsed interface : Native Win32 interface for Win NT & 2000Gap handling : Appended to previous track

Used output format : User Defined EncoderSelected bitrate : 320 kBit/sQuality : HighAdd ID3 tag : NoCommand line compressor : C:\Program Files\Exact Audio Copy\FLAC\flac.exeAdditional command line options : -V -8 -T "artist=%a" -T "title=%t" -T "album=%g" -T "date=%y" -T "tracknumber=%n" -T "genre=%m" %s

TOC of the extracted CD

Track | Start | Length | Start sector | End sector --------------------------------------------------------- 1 | 0:00.00 | 2:56.28 | 0 | 13227 2 | 2:56.28 | 3:00.23 | 13228 | 26750 3 | 5:56.51 | 4:01.65 | 26751 | 44890 4 | 9:58.41 | 4:21.26 | 44891 | 64491 5 | 14:19.67 | 2:28.34 | 64492 | 75625 6 | 16:48.26 | 4:51.63 | 75626 | 97513 7 | 21:40.14 | 3:09.67 | 97514 | 111755 8 | 24:50.06 | 3:45.44 | 111756 | 128674 9 | 28:35.50 | 3:27.74 | 128675 | 144273 10 | 32:03.49 | 3:04.61 | 144274 | 158134 11 | 35:08.35 | 4:58.67 | 158135 | 180551 12 | 40:07.27 | 3:28.21 | 180552 | 196172 13 | 43:35.48 | 5:46.58 | 196173 | 222180

Track 1

Filename C:\EACRips\Dionne Warwick - 2006 - My Friends And Me\01 - Walk On By (with Gloria Estefan).wav

Pre-gap length 0:00:02.00

Peak level 98.8 % Track quality 100.0 % Test CRC E9322E4E Copy CRC E9322E4E Accurately ripped (confidence 10) [5B7670F1] Copy OK

Track 2

Filename C:\EACRips\Dionne Warwick - 2006 - My Friends And Me\02 - Message To Michael (with Cyndi Lauper).wav

Pre-gap length 0:00:00.20

Peak level 98.8 % Track quality 99.9 % Test CRC 56950D5D Copy CRC 56950D5D Accurately ripped (confidence 10) [469A3FBC] Copy OK

Track 3

Filename C:\EACRips\Dionne Warwick - 2006 - My Friends And Me\03 - Close To You (with Mya).wav

Pre-gap length 0:00:01.12

Peak level 98.8 % Track quality 100.0 % Test CRC 0BA75978 Copy CRC 0BA75978 Accurately ripped (confidence 10) [2B21DB37] Copy OK

Track 4

Filename C:\EACRips\Dionne Warwick - 2006 - My Friends And Me\04 - I'll Never Love This Way Again (with Gladys Knight).wav

Pre-gap length 0:00:01.49

Peak level 98.8 % Track quality 99.9 % Test CRC 40305016 Copy CRC 40305016 Accurately ripped (confidence 10) [155830AB] Copy OK

Track 5

Filename C:\EACRips\Dionne Warwick - 2006 - My Friends And Me\05 - Raindrops Keep Fallin' On My Head (with Kelis).wav

Pre-gap length 0:00:01.34

Peak level 98.8 % Track quality 100.0 % Test CRC 6EED8BAA Copy CRC 6EED8BAA Accurately ripped (confidence 10) [84E986E9] Copy OK

Track 6

Filename C:\EACRips\Dionne Warwick - 2006 - My Friends And Me\06 - Dйjа Vu.wav

Pre-gap length 0:00:01.54

Peak level 96.6 % Track quality 100.0 % Test CRC 3A27E47B Copy CRC 3A27E47B Accurately ripped (confidence 11) [F33B144E] Copy OK

Track 7

Filename C:\EACRips\Dionne Warwick - 2006 - My Friends And Me\07 - I Say A Little Prayer (with Reba McEntire).wav

Pre-gap length 0:00:01.62

Peak level 98.8 % Track quality 100.0 % Test CRC 9FEB5599 Copy CRC 9FEB5599 Accurately ripped (confidence 10) [BCF7A065] Copy OK

Track 8

Filename C:\EACRips\Dionne Warwick - 2006 - My Friends And Me\08 - Anyone Who Had A Heart (with Wynonna Judd).wav

Pre-gap length 0:00:01.25

Peak level 98.8 % Track quality 100.0 % Test CRC D5109433 Copy CRC D5109433 Accurately ripped (confidence 10) [4CBBA8B4] Copy OK

Track 9

Filename C:\EACRips\Dionne Warwick - 2006 - My Friends And Me\09 - Then Came You (with Lisa Tucker).wav

Pre-gap length 0:00:01.93

Peak level 92.5 % Track quality 100.0 % Test CRC 1A8FF157 Copy CRC 1A8FF157 Accurately ripped (confidence 10) [0205EB9C] Copy OK

Track 10

Filename C:\EACRips\Dionne Warwick - 2006 - My Friends And Me\10 - Wishin' And Hopin' (with Olivia Newton-John).wav

Pre-gap length 0:00:01.00

Peak level 98.8 % Track quality 100.0 % Test CRC 808F468B Copy CRC 808F468B Accurately ripped (confidence 10) [F603695C] Copy OK

Track 11

Filename C:\EACRips\Dionne Warwick - 2006 - My Friends And Me\11 - Love Will Find A Way (with Cheyenne Elliott).wav

Pre-gap length 0:00:01.26

Peak level 96.6 % Track quality 100.0 % Test CRC CD429D70 Copy CRC CD429D70 Accurately ripped (confidence 10) [BCEF8856] Copy OK

Track 12

Filename C:\EACRips\Dionne Warwick - 2006 - My Friends And Me\12 - The Windows Of The World (with Angie Stone, Chante Moore, Deborah Cox, Da Brat).wav

Pre-gap length 0:00:02.00

Peak level 98.8 % Track quality 100.0 % Test CRC 4B9BA9B4 Copy CRC 4B9BA9B4 Accurately ripped (confidence 10) [D5BF115D] Copy OK

Track 13

Filename C:\EACRips\Dionne Warwick - 2006 - My Friends And Me\13 - Do You Know The Way To San Jose (with Celia Cruz).wav

Pre-gap length 0:00:01.50

Peak level 85.4 % Track quality 100.0 % Test CRC 159AC447 Copy CRC 159AC447 Accurately ripped (confidence 10) [E84F9942] Copy OK

All tracks accurately ripped

No errors occurred

End of status report
 
п»їREM GENRE VocalREM DATE 2006REM DISCID 930B920DREM COMMENT "ExactAudioCopy v0.99pb5"FILE "01 - Walk On By (with Gloria Estefan).flac" WAVE TRACK 01 AUDIO INDEX 01 00:00:00 TRACK 02 AUDIO INDEX 00 02:56:13FILE "02 - Message To Michael (with Cyndi Lauper).flac" WAVE INDEX 01 00:00:00 TRACK 03 AUDIO INDEX 00 02:59:14FILE "03 - Close To You (with Mya).flac" WAVE INDEX 01 00:00:00 TRACK 04 AUDIO INDEX 00 04:00:28FILE "04 - I'll Never Love This Way Again (with Gladys Knight).flac" WAVE INDEX 01 00:00:00 TRACK 05 AUDIO INDEX 00 04:20:00FILE "05 - Raindrops Keep Fallin' On My Head (with Kelis).flac" WAVE INDEX 01 00:00:00 TRACK 06 AUDIO INDEX 00 02:26:68FILE "06 - Deja Vu.flac" WAVE INDEX 01 00:00:00 TRACK 07 AUDIO INDEX 00 04:50:16FILE "07 - I Say A Little Prayer (with Reba McEntire).flac" WAVE INDEX 01 00:00:00 TRACK 08 AUDIO INDEX 00 03:08:48FILE "08 - Anyone Who Had A Heart (with Wynonna Judd).flac" WAVE INDEX 01 00:00:00 TRACK 09 AUDIO INDEX 00 03:43:49FILE "09 - Then Came You (with Lisa Tucker).flac" WAVE INDEX 01 00:00:00 TRACK 10 AUDIO INDEX 00 03:26:74FILE "10 - Wishin' And Hopin' (with Olivia Newton-John).flac" WAVE INDEX 01 00:00:00 TRACK 11 AUDIO INDEX 00 03:03:41FILE "11 - Love Will Find A Way (with Cheyenne Elliott).flac" WAVE INDEX 01 00:00:00 TRACK 12 AUDIO INDEX 00 04:56:67FILE "12 - The Windows Of The World (with Angie Stone, Chante Moore, Deborah Cox, Da Brat).flac" WAVE INDEX 01 00:00:00 TRACK 13 AUDIO INDEX 00 03:26:58FILE "13 - Do You Know The Way To San Jose (with Celia Cruz).flac" WAVE INDEX 01 00:00:00
 
[CUETools log; Date: 10.11.2011 11:36:01; Version: 2.0.9][CTDB TOCID: KH_LPPlE0pMEuXS7UBV1mb3AwxI-] found. [ CTDBID ] Status [d9fdd385] (1/1) Accurately ripped[AccurateRip ID: 001657b8-00e1ef3b-930b920d] found.Track [ CRC ] Status 01 [5b7670f1] (14/14) Accurately ripped 02 [469a3fbc] (14/14) Accurately ripped 03 [2b21db37] (14/14) Accurately ripped 04 [155830ab] (14/14) Accurately ripped 05 [84e986e9] (14/14) Accurately ripped 06 [f33b144e] (15/15) Accurately ripped 07 [bcf7a065] (14/14) Accurately ripped 08 [4cbba8b4] (14/14) Accurately ripped 09 [0205eb9c] (13/13) Accurately ripped 10 [f603695c] (13/13) Accurately ripped 11 [bcef8856] (13/13) Accurately ripped 12 [d5bf115d] (14/14) Accurately ripped 13 [e84f9942] (13/13) Accurately rippedOffsetted by -12: 01 [696fe275] (00/14) No match 02 [1e937e28] (00/14) No match 03 [cf62cba3] (00/14) No match 04 [e46c4adb] (00/14) No match 05 [736af939] (00/14) No match 06 [d1a3811a] (00/15) No match 07 [2a6e6601] (00/14) No match 08 [25895614] (00/14) No match 09 [b4ac9da4] (00/13) No match 10 [dc071c58] (00/13) No match 11 [08d7e7ba] (00/13) No match 12 [6fc7bb39] (00/14) No match 13 [304555ca] (00/13) No match

Track Peak [ CRC32 ] [W/O NULL] [ LOG ] -- 98,8 [4D506E0E] [B57CC61D] 01 98,8 [E9322E4E] [64E9E592] CRC32 02 98,8 [56950D5D] [87EFA07F] CRC32 03 98,8 [0BA75978] [9F66E78E] CRC32 04 98,8 [40305016] [45B80966] CRC32 05 98,8 [6EED8BAA] [23C1A488] CRC32 06 96,6 [3A27E47B] [14F1B2DF] CRC32 07 98,8 [9FEB5599] [AEF111ED] CRC32 08 98,8 [D5109433] [78EA47A9] CRC32 09 92,5 [1A8FF157] [66B39A1D] CRC32 10 98,8 [808F468B] [4D7BAE1C] CRC32 11 96,6 [CD429D70] [F86C2DB8] CRC32 12 98,8 [4B9BA9B4] [E62F0E09] CRC32 13 85,4 [159AC447] [A6011D94] CRC32


Трекер:  [ 27-Янв-2012 16:22 ]

  

Скачать .torrent

Размер .torrent файла 14 KB


Размер: 322 MB
Хэш (hash) релиза: 366a0f77cdae0460e8dee9d1072514216a36ecee

Еще никто не оставлял запись к записи скачать торрент Dionne Warwick — My Friends And Me — 2006, FLAC . Будь первым!

!Обратная связь