Скачать через торрент музыку Anita ODay — Incomparable! бесплатно без регистрации torrent

Если у вас наблюдаются проблемы со скриншотами, переходом по ссылками, скачиванием торрентов - проблемы в блокировщике рекламы AdBlock. #хорошегоДня!


Статистика раздачи
Размер:  232 MB   |    Зарегистрирован:  5 лет 8 месяцев   |    .torrent скачан:  50 раз   |   
Раздают:  1  
   
Загрузка...
 
Автор Сообщение

Umakiro

avatar Umakiro


Anita O'Day — Incomparable! (1960)

Жанр: Vocal Jazz
Год издания диска: 1960
Издатель (лейбл): Verve
Номер по каталогу: 854
Аудиокодек: FLAC (*.flac)
Тип рипа: tracks+.cue
Битрейт аудио: lossless
Продолжительность: 37:38
Риппер: mishka1981
Наличие сканов в содержимом раздачи: да

Треклист:
01. It Could Happen To You (2:39)
02. Blue Champagne (2:38)
03. Avalon (2:14)
04. Old Devil Moon (3:02)
05. The Party's Over (3:11)
06. Why Shouldn't I (3:14)
07. Easy Living (3:21)
08. Can't We Be Friends (2:18)
09. Slaughter On 10th Avenue (5:53)
10. If I Love Again (2:50)
11. Speak Low (3:05)
12. Indian Summer (3:14)  
 
Exact Audio Copy V1.0 beta 1 from 15. November 2010

EAC extraction logfile from 13. November 2011, 13:12

Anita O'Day / Incomparable! (2002 Edition)

Used drive : TSSTcorpCDDVDW TS-L633A Adapter: 3 ID: 0

Read mode : SecureUtilize accurate stream : YesDefeat audio cache : YesMake use of C2 pointers : No

Read offset correction : 6Overread into Lead-In and Lead-Out : NoFill up missing offset samples with silence : YesDelete leading and trailing silent blocks : NoNull samples used in CRC calculations : YesUsed interface : Installed external ASPI interfaceGap handling : Appended to previous track

Used output format : User Defined EncoderSelected bitrate : 896 kBit/sQuality : HighAdd ID3 tag : NoCommand line compressor : C:\Program Files\Exact Audio Copy\FLAC\FLAC.EXEAdditional command line options : -8 -V -T "ARTIST=%a" -T "TITLE=%t" -T "ALBUM=%g" -T "DATE=%y" -T "TRACKNUMBER=%n" -T "TOTALTRACKS=%x" -T "GENRE=%m" -T "ALBUMARTIST=%v" -T "ALBUM ARTIST=%v" -T "COMMENT=EAC Secure Mode, Test & Copy, AccurateRip, FLAC -8" %s

TOC of the extracted CD

Track | Start | Length | Start sector | End sector --------------------------------------------------------- 1 | 0:00.00 | 2:39.32 | 0 | 11956 2 | 2:39.32 | 2:37.48 | 11957 | 23779 3 | 5:17.05 | 2:13.52 | 23780 | 33806 4 | 7:30.57 | 3:02.20 | 33807 | 47476 5 | 10:33.02 | 3:11.33 | 47477 | 61834 6 | 13:44.35 | 3:14.07 | 61835 | 76391 7 | 16:58.42 | 3:20.43 | 76392 | 91434 8 | 20:19.10 | 2:17.42 | 91435 | 101751 9 | 22:36.52 | 5:52.48 | 101752 | 128199 10 | 28:29.25 | 2:50.00 | 128200 | 140949 11 | 31:19.25 | 3:04.67 | 140950 | 154816 12 | 34:24.17 | 3:14.20 | 154817 | 169386

Track 1

Filename C:\MY RIPS\01 - It Could Happen To You.wav

Pre-gap length 0:00:02.00

Peak level 99.9 % Extraction speed 0.9 X Track quality 100.0 % Test CRC B5415663 Copy CRC B5415663 Accurately ripped (confidence 5) [7E6580B0] Copy OK

Track 2

Filename C:\MY RIPS\02 - Blue Champagne.wav

Pre-gap length 0:00:01.22

Peak level 100.0 % Extraction speed 1.0 X Track quality 100.0 % Test CRC 1D7D1EFA Copy CRC 1D7D1EFA Accurately ripped (confidence 5) [4C0089C2] Copy OK

Track 3

Filename C:\MY RIPS\03 - Avalon.wav

Pre-gap length 0:00:02.28

Peak level 94.7 % Extraction speed 1.0 X Track quality 100.0 % Test CRC F61DE32B Copy CRC F61DE32B Accurately ripped (confidence 5) [2AFC9B58] Copy OK

Track 4

Filename C:\MY RIPS\04 - Old Devil Moon.wav

Pre-gap length 0:00:02.45

Peak level 97.5 % Extraction speed 0.9 X Track quality 99.9 % Test CRC 60A8FCEB Copy CRC 60A8FCEB Accurately ripped (confidence 5) [879B8973] Copy OK

Track 5

Filename C:\MY RIPS\05 - The Party's Over.wav

Pre-gap length 0:00:01.10

Peak level 86.5 % Extraction speed 1.2 X Track quality 100.0 % Test CRC 40EB3AD1 Copy CRC 40EB3AD1 Accurately ripped (confidence 5) [2637C96A] Copy OK

Track 6

Filename C:\MY RIPS\06 - Why Shouldn't I.wav

Pre-gap length 0:00:02.50

Peak level 84.2 % Extraction speed 1.4 X Track quality 100.0 % Test CRC C0E411D2 Copy CRC C0E411D2 Accurately ripped (confidence 5) [FEDDC080] Copy OK

Track 7

Filename C:\MY RIPS\07 - Easy Living.wav

Pre-gap length 0:00:06.72

Peak level 61.2 % Extraction speed 1.1 X Track quality 99.9 % Test CRC A90F5AD1 Copy CRC A90F5AD1 Accurately ripped (confidence 5) [9C48728A] Copy OK

Track 8

Filename C:\MY RIPS\08 - Can't We Be Friends.wav

Pre-gap length 0:00:02.65

Peak level 83.0 % Extraction speed 1.4 X Track quality 100.0 % Test CRC DB14CB82 Copy CRC DB14CB82 Accurately ripped (confidence 5) [DDD22166] Copy OK

Track 9

Filename C:\MY RIPS\09 - Slaughter On 10th Avenue.wav

Pre-gap length 0:00:02.47

Peak level 95.6 % Extraction speed 1.4 X Track quality 99.9 % Test CRC 2F53A228 Copy CRC 2F53A228 Accurately ripped (confidence 5) [C4CEFF18] Copy OK

Track 10

Filename C:\MY RIPS\10 - If I Love Again.wav

Pre-gap length 0:00:02.43

Peak level 83.5 % Extraction speed 1.1 X Track quality 99.9 % Test CRC AB4C0987 Copy CRC AB4C0987 Accurately ripped (confidence 5) [D17AFC1B] Copy OK

Track 11

Filename C:\MY RIPS\11 - Speak Low.wav

Pre-gap length 0:00:02.35

Peak level 79.2 % Extraction speed 1.6 X Track quality 100.0 % Test CRC B6E98D30 Copy CRC B6E98D30 Accurately ripped (confidence 5) [E9128B9D] Copy OK

Track 12

Filename C:\MY RIPS\12 - Indian Summer.wav

Pre-gap length 0:00:02.47

Peak level 79.2 % Extraction speed 1.2 X Track quality 99.9 % Test CRC 67CBD8A2 Copy CRC 67CBD8A2 Accurately ripped (confidence 5) [0D4A725E] Copy OK

All tracks accurately ripped

No errors occurred

End of status report

==== Log checksum 4836E0EFAE13A12047C96371052B9E99DC75BE0CDDC2F106B014A618805D579C ====
 
REM GENRE JazzREM DATE 1960REM DISCID 8408D20CREM COMMENT "ExactAudioCopy v1.0b1"PERFORMER "Anita O'Day"TITLE "Incomparable! (2002 Edition)"FILE "01 - It Could Happen To You.wav" WAVE TRACK 01 AUDIO TITLE "It Could Happen To You" PERFORMER "Anita O'Day" INDEX 01 00:00:00 TRACK 02 AUDIO TITLE "Blue Champagne" PERFORMER "Anita O'Day" INDEX 00 02:38:10FILE "02 - Blue Champagne.wav" WAVE INDEX 01 00:00:00 TRACK 03 AUDIO TITLE "Avalon" PERFORMER "Anita O'Day" INDEX 00 02:35:20FILE "03 - Avalon.wav" WAVE INDEX 01 00:00:00 TRACK 04 AUDIO TITLE "Old Devil Moon" PERFORMER "Anita O'Day" INDEX 00 02:11:07FILE "04 - Old Devil Moon.wav" WAVE INDEX 01 00:00:00 TRACK 05 AUDIO TITLE "The Party's Over" PERFORMER "Anita O'Day" INDEX 00 03:01:10FILE "05 - The Party's Over.wav" WAVE INDEX 01 00:00:00 TRACK 06 AUDIO TITLE "Why Shouldn't I" PERFORMER "Anita O'Day" INDEX 00 03:08:58FILE "06 - Why Shouldn't I.wav" WAVE INDEX 01 00:00:00 TRACK 07 AUDIO TITLE "Easy Living" PERFORMER "Anita O'Day" INDEX 00 03:07:10FILE "07 - Easy Living.wav" WAVE INDEX 01 00:00:00 TRACK 08 AUDIO TITLE "Can't We Be Friends" PERFORMER "Anita O'Day" INDEX 00 03:17:53FILE "08 - Can't We Be Friends.wav" WAVE INDEX 01 00:00:00 TRACK 09 AUDIO TITLE "Slaughter On 10th Avenue" PERFORMER "Anita O'Day" INDEX 00 02:14:70FILE "09 - Slaughter On 10th Avenue.wav" WAVE INDEX 01 00:00:00 TRACK 10 AUDIO TITLE "If I Love Again" PERFORMER "Anita O'Day" INDEX 00 05:50:05FILE "10 - If I Love Again.wav" WAVE INDEX 01 00:00:00 TRACK 11 AUDIO TITLE "Speak Low" PERFORMER "Anita O'Day" INDEX 00 02:47:40FILE "11 - Speak Low.wav" WAVE INDEX 01 00:00:00 TRACK 12 AUDIO TITLE "Indian Summer" PERFORMER "Anita O'Day" INDEX 00 03:02:20FILE "12 - Indian Summer.wav" WAVE INDEX 01 00:00:00
Anita O'Day (v) Conte Candoli, Al Porcino, Ray Triscari, Stu Williamson (tp) Bob Edmonson, Lew McCreary, Frank Rosolino, Kenny Shroyer (tb) Charlie Kennedy, Joe Maini (as) Richie Kamuca, Bill Perkins, Jack Nimitz (ts)
Lou Levy (p) Al Hendrickson (g) Joe Mondragon (b) Mel Lewis (d) Bill Holman (arr, cond)


Трекер:  [ 27-Янв-2012 16:21 ]

  

Скачать .torrent

Размер .torrent файла 19 KB


Размер: 232 MB
Хэш (hash) релиза: afb5c4cbc0a6f45f35d7767447a2f12f1e7196aa

Еще никто не оставлял запись к записи скачать торрент Anita ODay — Incomparable! . Будь первым!

!Обратная связь