Скачать через торрент музыку John Lewis - Grand Encounter бесплатно без регистрации torrent

Если у вас наблюдаются проблемы со скриншотами, переходом по ссылками, скачиванием торрентов - проблемы в блокировщике рекламы AdBlock. #хорошегоДня!


Статистика раздачи
Размер:  188 MB   |    Зарегистрирован:  5 лет 8 месяцев   |    .torrent скачан:  38 раз   |   
Раздают:  1  
   
Загрузка...
 
Автор Сообщение

Umakiro

avatar Umakiro


John Lewis / Grand Encounter (1956)

Жанр: Cool
Страна-производитель диска: Japan
Год издания диска: 1990
Издатель (лейбл): Pacific
Номер по каталогу: TOCJ-5348
Аудиокодек: FLAC (*.flac)
Тип рипа: image+.cue
Битрейт аудио: lossless
Продолжительность: 34:53
Источник (релизер): barin99
Наличие сканов в содержимом раздачи: да
Треклист:
01. Love Me Or Leave Me (8:20)
02. I Can't Get Started (3:33)
03. Easy Living (4:15)
04. 2 Degrees East - 3 Degrees West (6:09)
05. Skylark (3:08)
06. Almost Like Being In Love (9:28)

Personnel:
Bill Perkins - ts
John Lewis - p
Jim Hall - g
Percy Heath - b
Chico Hamilton - d
 
 
Exact Audio Copy V1.0 beta 1 from 15. November 2010

EAC extraction logfile from 28. October 2011, 10:38

John Lewis / Grand Encounter

Used drive : TSSTcorpDVD+-RW TS-L532B Adapter: 1 ID: 0

Read mode : SecureUtilize accurate stream : YesDefeat audio cache : YesMake use of C2 pointers : No

Read offset correction : 704Overread into Lead-In and Lead-Out : NoFill up missing offset samples with silence : YesDelete leading and trailing silent blocks : NoNull samples used in CRC calculations : YesUsed interface : Native Win32 interface for Win NT & 2000

Used output format : Internal WAV RoutinesSample format : 44.100 Hz; 16 Bit; Stereo

TOC of the extracted CD

Track | Start | Length | Start sector | End sector --------------------------------------------------------- 1 | 0:00.00 | 8:19.52 | 0 | 37476 2 | 8:19.52 | 3:33.23 | 37477 | 53474 3 | 11:53.00 | 4:15.02 | 53475 | 72601 4 | 16:08.02 | 6:08.68 | 72602 | 100269 5 | 22:16.70 | 3:07.57 | 100270 | 114351 6 | 25:24.52 | 9:28.23 | 114352 | 156974

Range status and errors

Selected range

Filename C:\Documents and Settings\VB\My Documents\BARIN99\John Lewis - Grand Encounter\John Lewis - Grand Encounter.wav

Peak level 99.9 % Extraction speed 0.7 X Range quality 99.9 % Copy CRC B34B53EC Copy OK

No errors occurred

AccurateRip summary

Track 1 not present in databaseTrack 2 not present in databaseTrack 3 not present in databaseTrack 4 not present in databaseTrack 5 not present in databaseTrack 6 not present in database

None of the tracks are present in the AccurateRip database

End of status report
 
REM GENRE JazzREM DATE 1956REM DISCID 42082D06REM COMMENT "ExactAudioCopy v1.0b1"PERFORMER "John Lewis"TITLE "Grand Encounter"FILE "John Lewis - Grand Encounter.flac" WAVE TRACK 01 AUDIO TITLE "Love Me Or Leave Me" PERFORMER "John Lewis" INDEX 01 00:00:00 TRACK 02 AUDIO TITLE "I Can't Get Started" PERFORMER "John Lewis" INDEX 00 08:18:55 INDEX 01 08:19:52 TRACK 03 AUDIO TITLE "Easy Living" PERFORMER "John Lewis" INDEX 00 11:51:37 INDEX 01 11:53:00 TRACK 04 AUDIO TITLE "2 Degrees East - 3 Degrees West" PERFORMER "John Lewis" INDEX 00 16:07:02 INDEX 01 16:08:02 TRACK 05 AUDIO TITLE "Skylark" PERFORMER "John Lewis" INDEX 00 22:16:02 INDEX 01 22:16:70 TRACK 06 AUDIO TITLE "Almost Like Being In Love" PERFORMER "John Lewis" INDEX 00 25:22:65 INDEX 01 25:24:52


Трекер:  [ 27-Янв-2012 16:20 ]

  

Скачать .torrent

Размер .torrent файла 15 KB


Размер: 188 MB
Хэш (hash) релиза: aacf39be9a2eb4c5b55d1dc2089dd28780e1677d

Еще никто не оставлял запись к записи скачать торрент John Lewis - Grand Encounter . Будь первым!

!Обратная связь