Скачать через торрент музыку Baden Powell — Minha Historia — 1994, FLAC бесплатно без регистрации torrent

Если у вас наблюдаются проблемы со скриншотами, переходом по ссылками, скачиванием торрентов - проблемы в блокировщике рекламы AdBlock. #хорошегоДня!


Статистика раздачи
Размер:  290 MB   |    Зарегистрирован:  5 лет 8 месяцев   |    .torrent скачан:  49 раз   |   
Раздают:  1  
   
Загрузка...
 
Автор Сообщение

Umakiro

avatar Umakiro


Baden Powell — Minha Historia

Жанр: Latin Jazz
Год издания диска: 1994
Издатель (лейбл): Verve
Номер по каталогу: 526194-2
Аудиокодек: FLAC (*.flac)
Тип рипа: image+.cue
Битрейт аудио: lossless
Продолжительность: 52:53
Риппер: intothe
Наличие сканов в содержимом раздачи: да

Треклист:
01. Lamento (3:27)
02. Canto de Ossanha (6:53)
03. Deixa (3:55)
04. Garinhoso (3:40)
05. Eurнdice (4:14)
06. Aselo (4:14)
07. Chao de Estrelas (3:23)
08. Debe ser Amor (2:32)
09. Berimbau (3:27)
10. Garota de Ipanema (3:05)
11. Tempo Feliz (4:22)
12. O Astronauta (2:29)
13. Manha de Carnaval (3:03)
14. Samba Triste (4:10)
 
 
Exact Audio Copy V0.99 prebeta 5 from 4. May 2009

EAC extraction logfile from 24. November 2011, 17:47

Baden Powel / Minha Historia

Used drive : _NEC DVD_RW ND-3500AG Adapter: 0 ID: 0

Read mode : SecureUtilize accurate stream : YesDefeat audio cache : YesMake use of C2 pointers : No

Read offset correction : 48Overread into Lead-In and Lead-Out : NoFill up missing offset samples with silence : YesDelete leading and trailing silent blocks : NoNull samples used in CRC calculations : YesUsed interface : Native Win32 interface for Win NT & 2000

Used output format : User Defined EncoderSelected bitrate : 768 kBit/sQuality : HighAdd ID3 tag : NoCommand line compressor : C:\Program Files\Exact Audio Copy\FLAC\FLAC.EXEAdditional command line options : -6 -V -T "ARTIST=%a" -T "TITLE=%t" -T "ALBUM=%g" -T "DATE=%y" -T "TRACKNUMBER=%n" -T "GENRE=%m" -T "COMMENT=%e" %s -o %d

TOC of the extracted CD

Track | Start | Length | Start sector | End sector --------------------------------------------------------- 1 | 0:00.00 | 3:26.68 | 0 | 15517 2 | 3:26.68 | 6:52.40 | 15518 | 46457 3 | 10:19.33 | 3:55.02 | 46458 | 64084 4 | 14:14.35 | 3:40.25 | 64085 | 80609 5 | 17:54.60 | 4:13.45 | 80610 | 99629 6 | 22:08.30 | 4:13.73 | 99630 | 118677 7 | 26:22.28 | 3:22.50 | 118678 | 133877 8 | 29:45.03 | 2:32.05 | 133878 | 145282 9 | 32:17.08 | 3:26.57 | 145283 | 160789 10 | 35:43.65 | 3:04.55 | 160790 | 174644 11 | 38:48.45 | 4:22.00 | 174645 | 194294 12 | 43:10.45 | 2:29.03 | 194295 | 205472 13 | 45:39.48 | 3:03.22 | 205473 | 219219 14 | 48:42.70 | 4:10.13 | 219220 | 237982

Range status and errors

Selected range

Filename J:\eMusic\Rip\Baden Powel - Minha Historia.wav

Peak level 100.0 % Range quality 99.9 % Copy CRC ED1DD185 Copy OK

No errors occurred

AccurateRip summary

Track 1 not present in databaseTrack 2 not present in databaseTrack 3 not present in databaseTrack 4 not present in databaseTrack 5 not present in databaseTrack 6 not present in databaseTrack 7 not present in databaseTrack 8 not present in databaseTrack 9 not present in databaseTrack 10 not present in databaseTrack 11 not present in databaseTrack 12 not present in databaseTrack 13 not present in databaseTrack 14 not present in database

None of the tracks are present in the AccurateRip database

End of status report
 
REM GENRE BrazilREM DATE 1994REM DISCID C10C650EREM COMMENT "ExactAudioCopy v0.99pb5"PERFORMER "Baden Powel"TITLE "Minha Historia"FILE "Baden Powel - Minha Historia.flac" WAVE TRACK 01 AUDIO TITLE "Lamento" PERFORMER "Baden Powel" INDEX 01 00:00:00 TRACK 02 AUDIO TITLE "Canto de Ossanha" PERFORMER "Baden Powel" INDEX 00 03:25:10 INDEX 01 03:26:68 TRACK 03 AUDIO TITLE "Deixa" PERFORMER "Baden Powel" INDEX 00 10:17:45 INDEX 01 10:19:33 TRACK 04 AUDIO TITLE "Garinhoso" PERFORMER "Baden Powel" INDEX 00 14:12:55 INDEX 01 14:14:35 TRACK 05 AUDIO TITLE "Eurнdice" PERFORMER "Baden Powel" INDEX 00 17:53:18 INDEX 01 17:54:60 TRACK 06 AUDIO TITLE "Aselo" PERFORMER "Baden Powel" INDEX 00 22:06:03 INDEX 01 22:08:30 TRACK 07 AUDIO TITLE "Chao de Estrelas" PERFORMER "Baden Powel" INDEX 00 26:20:08 INDEX 01 26:22:28 TRACK 08 AUDIO TITLE "Debe ser Amor" PERFORMER "Baden Powel" INDEX 00 29:42:45 INDEX 01 29:45:03 TRACK 09 AUDIO TITLE "Berimbau" PERFORMER "Baden Powel" INDEX 00 32:15:48 INDEX 01 32:17:08 TRACK 10 AUDIO TITLE "Garota de Ipanema" PERFORMER "Baden Powel" INDEX 00 35:42:18 INDEX 01 35:43:65 TRACK 11 AUDIO TITLE "Tempo Feliz" PERFORMER "Baden Powel" INDEX 00 38:46:55 INDEX 01 38:48:45 TRACK 12 AUDIO TITLE "O Astronauta" PERFORMER "Baden Powel" INDEX 00 43:08:48 INDEX 01 43:10:45 TRACK 13 AUDIO TITLE "Manha de Carnaval" PERFORMER "Baden Powel" INDEX 00 45:37:18 INDEX 01 45:39:48 TRACK 14 AUDIO TITLE "Samba Triste" PERFORMER "Baden Powel" INDEX 00 48:40:53 INDEX 01 48:42:70


Трекер:  [ 27-Янв-2012 16:19 ]

  

Скачать .torrent

Размер .torrent файла 12 KB


Размер: 290 MB
Хэш (hash) релиза: c683bfeac2e3f9da01ada4da25f970ef3be8b03f

Еще никто не оставлял запись к записи скачать торрент Baden Powell — Minha Historia — 1994, FLAC . Будь первым!

!Обратная связь