Скачать через торрент музыку Nancy Wilson — Live From Las Vegas бесплатно без регистрации torrent

Если у вас наблюдаются проблемы со скриншотами, переходом по ссылками, скачиванием торрентов - проблемы в блокировщике рекламы AdBlock. #хорошегоДня!


Статистика раздачи
Размер:  355 MB   |    Зарегистрирован:  5 лет 8 месяцев   |    .torrent скачан:  34 раза   |   
Раздают:  1  
   
Загрузка...
 
Автор Сообщение

Umakiro

avatar Umakiro


Nancy Wilson — Live From Las Vegas (1968)

Жанр: Vocal Jazz
Год издания диска: 2005
Издатель (лейбл): Capitol
Номер по каталогу: 75938
Аудиокодек: FLAC (*.flac)
Тип рипа: tracks+.cue
Битрейт аудио: lossless
Продолжительность: 52:41
Rip by Oceandrop
Наличие сканов в содержимом раздачи: да

Треклист:
01. Into / Hello, Young Lovers (2:49)
02. Small World, Isn't It (3:14)
03. Gypsies, The Jugglers And The Clowns (2:02)
04. I Can't Get Started (4:51)
05. If We Only Have Love (3:51)
06. The Man That Got Away (2:25)
07. The Folks Who Live On The Hill (4:57)
08. Crazy Butterfly (1:56)
09. Peace Of Mind (3:06)
10. Face It Girl, It's Over (3:32)
11. Just Go (2:33)
12. Band Introductions (2:45)
13. We Would Have Been Fine (6:27)
14. K.C. Medley (8:13)
 
 
Exact Audio Copy V1.0 beta 1 from 15. November 2010

EAC extraction logfile from 18. November 2011, 14:22

Nancy Wilson / Live from Las Vegas {Capitol 72438-75938-2-4}

Used drive : ASUS DRW-1608P3S Adapter: 0 ID: 1

Read mode : SecureUtilize accurate stream : YesDefeat audio cache : YesMake use of C2 pointers : No

Read offset correction : 48Overread into Lead-In and Lead-Out : NoFill up missing offset samples with silence : YesDelete leading and trailing silent blocks : NoNull samples used in CRC calculations : YesUsed interface : Native Win32 interface for Win NT & 2000Gap handling : Appended to previous track

Used output format : Internal WAV RoutinesSample format : 44.100 Hz; 16 Bit; Stereo

TOC of the extracted CD

Track | Start | Length | Start sector | End sector --------------------------------------------------------- 1 | 0:00.00 | 2:48.55 | 0 | 12654 2 | 2:48.55 | 3:14.25 | 12655 | 27229 3 | 6:03.05 | 2:02.32 | 27230 | 36411 4 | 8:05.37 | 4:50.55 | 36412 | 58216 5 | 12:56.17 | 3:50.50 | 58217 | 75516 6 | 16:46.67 | 2:24.70 | 75517 | 86386 7 | 19:11.62 | 4:56.55 | 86387 | 108641 8 | 24:08.42 | 1:56.35 | 108642 | 117376 9 | 26:05.02 | 3:05.53 | 117377 | 131304 10 | 29:10.55 | 3:32.25 | 131305 | 147229 11 | 32:43.05 | 2:33.30 | 147230 | 158734 12 | 35:16.35 | 2:44.72 | 158735 | 171106 13 | 38:01.32 | 6:27.18 | 171107 | 200149 14 | 44:28.50 | 8:12.42 | 200150 | 237091

Track 1

Filename H:\EAC@Oceandrop rips\Nancy Wilson - Live from Las Vegas {Capitol}\01 - Into & Hello, Young Lovers.wav

Pre-gap length 0:00:02.00

Peak level 98.8 % Extraction speed 0.9 X Track quality 100.0 % Test CRC A32DBE82 Copy CRC A32DBE82 Track not present in AccurateRip database Copy OK

Track 2

Filename H:\EAC@Oceandrop rips\Nancy Wilson - Live from Las Vegas {Capitol}\02 - Small World, Isn't It.wav

Peak level 98.8 % Extraction speed 1.0 X Track quality 100.0 % Test CRC 9B7B0282 Copy CRC 9B7B0282 Track not present in AccurateRip database Copy OK

Track 3

Filename H:\EAC@Oceandrop rips\Nancy Wilson - Live from Las Vegas {Capitol}\03 - Gypsies, the Jugglers and the Clowns.wav

Peak level 98.8 % Extraction speed 1.0 X Track quality 100.0 % Test CRC 67D865EE Copy CRC 67D865EE Track not present in AccurateRip database Copy OK

Track 4

Filename H:\EAC@Oceandrop rips\Nancy Wilson - Live from Las Vegas {Capitol}\04 - I Can't Get Started.wav

Peak level 97.7 % Extraction speed 1.3 X Track quality 100.0 % Test CRC 23BD62D1 Copy CRC 23BD62D1 Track not present in AccurateRip database Copy OK

Track 5

Filename H:\EAC@Oceandrop rips\Nancy Wilson - Live from Las Vegas {Capitol}\05 - If We Only Have Love.wav

Pre-gap length 0:02:23.25

Peak level 98.8 % Extraction speed 1.3 X Track quality 100.0 % Test CRC 34FE047C Copy CRC 34FE047C Track not present in AccurateRip database Copy OK

Track 6

Filename H:\EAC@Oceandrop rips\Nancy Wilson - Live from Las Vegas {Capitol}\06 - The Man That Got Away.wav

Peak level 98.8 % Extraction speed 1.3 X Track quality 100.0 % Test CRC 104285C8 Copy CRC 104285C8 Track not present in AccurateRip database Copy OK

Track 7

Filename H:\EAC@Oceandrop rips\Nancy Wilson - Live from Las Vegas {Capitol}\07 - The Folks Who Live on the Hill.wav

Peak level 94.0 % Extraction speed 1.5 X Track quality 100.0 % Test CRC 11E43891 Copy CRC 11E43891 Track not present in AccurateRip database Copy OK

Track 8

Filename H:\EAC@Oceandrop rips\Nancy Wilson - Live from Las Vegas {Capitol}\08 - Crazy Butterfly.wav

Peak level 91.2 % Extraction speed 1.3 X Track quality 100.0 % Test CRC 8630350F Copy CRC 8630350F Track not present in AccurateRip database Copy OK

Track 9

Filename H:\EAC@Oceandrop rips\Nancy Wilson - Live from Las Vegas {Capitol}\09 - Peace of Mind.wav

Peak level 91.2 % Extraction speed 1.5 X Track quality 100.0 % Test CRC D1B500ED Copy CRC D1B500ED Track not present in AccurateRip database Copy OK

Track 10

Filename H:\EAC@Oceandrop rips\Nancy Wilson - Live from Las Vegas {Capitol}\10 - Face it Girl, it's Over.wav

Peak level 91.2 % Extraction speed 1.6 X Track quality 100.0 % Test CRC F44FB98C Copy CRC F44FB98C Track not present in AccurateRip database Copy OK

Track 11

Filename H:\EAC@Oceandrop rips\Nancy Wilson - Live from Las Vegas {Capitol}\11 - Just Go.wav

Peak level 83.1 % Extraction speed 1.3 X Track quality 99.9 % Test CRC C6BAA804 Copy CRC C6BAA804 Track not present in AccurateRip database Copy OK

Track 12

Filename H:\EAC@Oceandrop rips\Nancy Wilson - Live from Las Vegas {Capitol}\12 - Band Introductions.wav

Peak level 91.2 % Extraction speed 1.6 X Track quality 100.0 % Test CRC 1B1EE83E Copy CRC 1B1EE83E Track not present in AccurateRip database Copy OK

Track 13

Filename H:\EAC@Oceandrop rips\Nancy Wilson - Live from Las Vegas {Capitol}\13 - We Would Have Been Fine.wav

Peak level 91.2 % Extraction speed 1.9 X Track quality 100.0 % Test CRC 1719028E Copy CRC 1719028E Track not present in AccurateRip database Copy OK

Track 14

Filename H:\EAC@Oceandrop rips\Nancy Wilson - Live from Las Vegas {Capitol}\14 - K.C. Medley.wav

Peak level 91.2 % Extraction speed 2.1 X Track quality 100.0 % Test CRC 3F52E3C6 Copy CRC 3F52E3C6 Track not present in AccurateRip database Copy OK

None of the tracks are present in the AccurateRip database

No errors occurred

End of status report

==== Log checksum 3AA974E2E0328CAEC593A7816DCD2D5F03C2476C8490A96D71B719682D51794C ====
 
REM GENRE JazzREM DATE 2005REM DISCID BF0C590EREM COMMENT "ExactAudioCopy v1.0b1"PERFORMER "Nancy Wilson"TITLE "Live From Las Vegas"FILE "01. Into - Hello, Young Lovers.flac" WAVE TRACK 01 AUDIO TITLE "Into / Hello, Young Lovers" PERFORMER "Nancy Wilson" INDEX 01 00:00:00FILE "02. Small World, Isn't It.flac" WAVE TRACK 02 AUDIO TITLE "Small World, Isn't It" PERFORMER "Nancy Wilson" INDEX 01 00:00:00FILE "03. Gypsies, The Jugglers And The Clowns.flac" WAVE TRACK 03 AUDIO TITLE "Gypsies, The Jugglers And The Clowns" PERFORMER "Nancy Wilson" INDEX 01 00:00:00FILE "04. I Can't Get Started.flac" WAVE TRACK 04 AUDIO TITLE "I Can't Get Started" PERFORMER "Nancy Wilson" INDEX 01 00:00:00 TRACK 05 AUDIO TITLE "If We Only Have Love" PERFORMER "Nancy Wilson" INDEX 00 02:27:30FILE "05. If We Only Have Love.flac" WAVE INDEX 01 00:00:00FILE "06. The Man That Got Away.flac" WAVE TRACK 06 AUDIO TITLE "The Man That Got Away" PERFORMER "Nancy Wilson" INDEX 01 00:00:00FILE "07. The Folks Who Live On The Hill.flac" WAVE TRACK 07 AUDIO TITLE "The Folks Who Live On The Hill" PERFORMER "Nancy Wilson" INDEX 01 00:00:00FILE "08. Crazy Butterfly.flac" WAVE TRACK 08 AUDIO TITLE "Crazy Butterfly" PERFORMER "Nancy Wilson" INDEX 01 00:00:00FILE "09. Peace Of Mind.flac" WAVE TRACK 09 AUDIO TITLE "Peace Of Mind" PERFORMER "Nancy Wilson" INDEX 01 00:00:00FILE "10. Face It Girl, It's Over.flac" WAVE TRACK 10 AUDIO TITLE "Face It Girl, It's Over" PERFORMER "Nancy Wilson" INDEX 01 00:00:00FILE "11. Just Go.flac" WAVE TRACK 11 AUDIO TITLE "Just Go" PERFORMER "Nancy Wilson" INDEX 01 00:00:00FILE "12. Band Introductions.flac" WAVE TRACK 12 AUDIO TITLE "Band Introductions" PERFORMER "Nancy Wilson" INDEX 01 00:00:00FILE "13. We Would Have Been Fine.flac" WAVE TRACK 13 AUDIO TITLE "We Would Have Been Fine" PERFORMER "Nancy Wilson" INDEX 01 00:00:00FILE "14. K.C. Medley.flac" WAVE TRACK 14 AUDIO TITLE "K.C. Medley" PERFORMER "Nancy Wilson" INDEX 01 00:00:00
 

Трекер:  [ 27-Янв-2012 16:18 ]

  

Скачать .torrent

Размер .torrent файла 16 KB


Размер: 355 MB
Хэш (hash) релиза: dcdba38bb448edbc76bb78dbf001f1e1a45e35cf

Еще никто не оставлял запись к записи скачать торрент Nancy Wilson — Live From Las Vegas . Будь первым!

!Обратная связь