Скачать через торрент музыку Eric Dolphy — Berlin Concerts бесплатно без регистрации torrent

Если у вас наблюдаются проблемы со скриншотами, переходом по ссылками, скачиванием торрентов - проблемы в блокировщике рекламы AdBlock. #хорошегоДня!


Статистика раздачи
Размер:  421 MB   |    Зарегистрирован:  5 лет 8 месяцев   |    .torrent скачан:  24 раза   |   
Раздают:  1  
   
Загрузка...
 
Автор Сообщение

Umakiro

avatar Umakiro


Eric Dolphy — Berlin Concerts (1961)

Жанр: Hard Bop
Год издания диска: 1990
Издатель (лейбл): Enja
Номер по каталогу: CD 3007
Аудиокодек: FLAC (*.flac)
Тип рипа: tracks+.cue
Битрейт аудио: lossless
Продолжительность: 72:05
Релизер: ruskaval
Наличие сканов в содержимом раздачи: да

Треклист:
01. Hot House (19:07)
02. When Lights Are Low (13:05)
03. Geewee (2:52)
04. God Bless The Child (3:31)
05. Hi-Fly (14:41)
06. The Meeting (5:40)
07. I'll Remember April (13:09)

Personnel:
Eric Dolphy (flute, clarinet, alto saxophone)
Benny Bailey (trumpet)
Pepsi Auer (piano)
George Joyner (bass)
Buster Smith (drums)

 
 
Exact Audio Copy V0.99 prebeta 4 from 23. January 2008

EAC extraction logfile from 9. November 2008, 19:59

Eric Dolphy / Berlin Concerts

Used drive : PHILIPS DVD+-RW DVD8801 Adapter: 0 ID: 1

Read mode : SecureUtilize accurate stream : YesDefeat audio cache : YesMake use of C2 pointers : No

Read offset correction : 618Overread into Lead-In and Lead-Out : NoFill up missing offset samples with silence : YesDelete leading and trailing silent blocks : NoNull samples used in CRC calculations : YesUsed interface : Native Win32 interface for Win NT & 2000Gap handling : Appended to previous track

Used output format : User Defined EncoderSelected bitrate : 128 kBit/sQuality : HighAdd ID3 tag : NoCommand line compressor : C:\Archivos de programa\Exact Audio Copy\FLAC\FLAC.EXEAdditional command line options : -V -8 -T "artist=%a" -T "title=%t" -T "album=%g" -T "date=%y" -T "tracknumber=%n" -T "genre=%m" %s

TOC of the extracted CD

Track | Start | Length | Start sector | End sector --------------------------------------------------------- 1 | 0:00.33 | 19:07.00 | 33 | 86057 2 | 19:07.33 | 13:05.00 | 86058 | 144932 3 | 32:12.33 | 2:52.00 | 144933 | 157832 4 | 35:04.33 | 3:31.00 | 157833 | 173657 5 | 38:35.33 | 14:41.00 | 173658 | 239732 6 | 53:16.33 | 5:40.00 | 239733 | 265232 7 | 58:56.33 | 13:09.25 | 265233 | 324432

Track 1

Filename D:\00 Rips\Eric Dolphy - Berlin Concert\01 - Hot House.wav

Pre-gap length 0:00:02.44

Peak level 97.8 % Track quality 100.0 % Test CRC D55332D9 Copy CRC D55332D9 Copy OK

Track 2

Filename D:\00 Rips\Eric Dolphy - Berlin Concert\02 - When Lights Are Low.wav

Pre-gap length 0:00:03.26

Peak level 100.0 % Track quality 99.9 % Test CRC 393CF41B Copy CRC 393CF41B Copy OK

Track 3

Filename D:\00 Rips\Eric Dolphy - Berlin Concert\03 - Geewee.wav

Pre-gap length 0:00:03.00

Peak level 100.0 % Track quality 99.9 % Test CRC 6BAB35D0 Copy CRC 6BAB35D0 Copy OK

Track 4

Filename D:\00 Rips\Eric Dolphy - Berlin Concert\04 - God Bless The Child.wav

Pre-gap length 0:00:04.86

Peak level 73.6 % Track quality 100.0 % Test CRC 3E5D440C Copy CRC 3E5D440C Copy OK

Track 5

Filename D:\00 Rips\Eric Dolphy - Berlin Concert\05 - Hi-Fly.wav

Pre-gap length 0:00:04.44

Peak level 100.0 % Track quality 100.0 % Test CRC C4C1B739 Copy CRC C4C1B739 Copy OK

Track 6

Filename D:\00 Rips\Eric Dolphy - Berlin Concert\06 - The Meeting.wav

Pre-gap length 0:00:03.24

Peak level 80.0 % Track quality 100.0 % Test CRC 8F25A38C Copy CRC 8F25A38C Copy OK

Track 7

Filename D:\00 Rips\Eric Dolphy - Berlin Concert\07 - I'll Remember April.wav

Pre-gap length 0:00:03.64

Peak level 100.0 % Track quality 99.9 % Test CRC 1989432F Copy CRC 1989432F Copy OK

No errors occurred

End of status report
 
REM DISCID 6010E507REM COMMENT "ExactAudioCopy v0.99pb4"PERFORMER "Eric Dolphy"TITLE "Berlin Concerts"FILE "01 - Hot House.wav" WAVE TRACK 01 AUDIO TITLE "Hot House" PERFORMER "Eric Dolphy" PREGAP 00:00:33 INDEX 01 00:00:00 TRACK 02 AUDIO TITLE "When Lights Are Low" PERFORMER "Eric Dolphy" FLAGS DCP INDEX 00 19:03:55FILE "02 - When Lights Are Low.wav" WAVE INDEX 01 00:00:00 TRACK 03 AUDIO TITLE "Geewee" PERFORMER "Eric Dolphy" FLAGS DCP INDEX 00 13:02:00FILE "03 - Geewee.wav" WAVE INDEX 01 00:00:00 TRACK 04 AUDIO TITLE "God Bless The Child" PERFORMER "Eric Dolphy" FLAGS DCP INDEX 00 02:47:10FILE "04 - God Bless The Child.wav" WAVE INDEX 01 00:00:00 TRACK 05 AUDIO TITLE "Hi-Fly" PERFORMER "Eric Dolphy" FLAGS DCP INDEX 00 03:26:42FILE "05 - Hi-Fly.wav" WAVE INDEX 01 00:00:00 TRACK 06 AUDIO TITLE "The Meeting" PERFORMER "Eric Dolphy" FLAGS DCP INDEX 00 14:37:57FILE "06 - The Meeting.wav" WAVE INDEX 01 00:00:00 TRACK 07 AUDIO TITLE "I'll Remember April" PERFORMER "Eric Dolphy" FLAGS DCP INDEX 00 05:36:27FILE "07 - I'll Remember April.wav" WAVE INDEX 01 00:00:00
 
[CUETools log; Date: 01.12.2011 11:18:19; Version: 2.0.9]Pregap length 00:00:33.[CTDB TOCID: ni5jlSsFhx0DpNRUAwPZKfHf86M-] disk not present in database.[AccurateRip ID: 00153d2a-007a0687-6010e507] found.Track [ CRC ] Status 01 [3f54f44f] (0/7) No match 02 [5e6d0c1a] (0/7) No match 03 [7ecf6506] (0/7) No match 04 [aeff1384] (2/9) Accurately ripped 05 [b74e4d0c] (0/7) No match 06 [aeae8a38] (0/7) No match 07 [09fe8bb3] (0/5) No matchOffsetted by 664: 01 [87c087d7] (5/7) Accurately ripped 02 [a5d57b0a] (5/7) Accurately ripped 03 [59b905c6] (5/7) Accurately ripped 04 [9fe1018c] (5/9) Accurately ripped 05 [c9835d7c] (5/7) Accurately ripped 06 [4e577d40] (5/7) Accurately ripped 07 [79585be3] (5/5) Accurately rippedOffsetted by 932: 01 [7b57e6db] (2/7) Accurately ripped 02 [758bf802] (2/7) Accurately ripped 03 [5bb7b426] (2/7) Accurately ripped 04 [983c31d0] (2/9) Accurately ripped 05 [7c0ae734] (2/7) Accurately ripped 06 [1993f804] (2/7) Accurately ripped 07 [d177fb7b] (0/5) No match

Track Peak [ CRC32 ] [W/O NULL] [ LOG ] -- 100,0 [29BA1982] [AEC7936C] 01 97,8 [D55332D9] [C883A604] CRC32 02 100,0 [393CF41B] [2BBADAD2] CRC32 03 100,0 [6BAB35D0] [B39363D8] CRC32 04 73,6 [3E5D440C] [C010C932] CRC32 05 100,0 [C4C1B739] [0B37B66E] CRC32 06 80,0 [8F25A38C] [C889CB58] CRC32 07 100,0 [1989432F] [8B07780B] CRC32


Трекер:  [ 27-Янв-2012 16:18 ]

  

Скачать .torrent

Размер .torrent файла 18 KB


Размер: 421 MB
Хэш (hash) релиза: dfaaa9fc1a4ed4ecfb28f4c03b901ad792b23859

Еще никто не оставлял запись к записи скачать торрент Eric Dolphy — Berlin Concerts . Будь первым!

!Обратная связь