Скачать через торрент музыку New Klezmer Trio — Masks And Faces бесплатно без регистрации torrent

Если у вас наблюдаются проблемы со скриншотами, переходом по ссылками, скачиванием торрентов - проблемы в блокировщике рекламы AdBlock. #хорошегоДня!


Статистика раздачи
Размер:  294 MB   |    Зарегистрирован:  5 лет 8 месяцев   |    .torrent скачан:  21 раз   |   
Раздают:  1  
   
Загрузка...
 
Автор Сообщение

Umakiro

avatar Umakiro


New Klezmer Trio — Masks And Faces (1990)

Жанр: Klezmer Jazz
Год издания диска: 1996
Издатель (лейбл): Tzadik Records
Номер по каталогу: TZ 7112
Аудиокодек: FLAC (*.flac)
Тип рипа: tracks+.cue
Битрейт аудио: lossless
Продолжительность: 53:47
Риппер: durmoll
Наличие сканов в содержимом раздачи: да

Треклист:
01. Cardboard Factory (5:09)
02. Hot And Cold (3:46)
03. Rebbe's Meal (7:38)
04. Up (4:22)
05. Washing Machine Song (3:02)
06. Galician (5:24)
07. Masks And Faces (6:37)
08. Haphazard (4:06)
09. Bitonal Song (3:10)
10. The Gate (10:33)

Personnel:
Ben Goldberg - cl, bcl
Dan Seamans - b
Kenny Wollesen - d
 
 
Exact Audio Copy V1.0 beta 3 from 29. August 2011

EAC extraction logfile from 30. November 2011, 10:29

New Klezmer Trio / Masks and Faces

Used drive : ASUS DRW-22D1S Adapter: 2 ID: 0

Read mode : SecureUtilize accurate stream : YesDefeat audio cache : YesMake use of C2 pointers : No

Read offset correction : 102Overread into Lead-In and Lead-Out : NoFill up missing offset samples with silence : YesDelete leading and trailing silent blocks : NoNull samples used in CRC calculations : YesUsed interface : Native Win32 interface for Win NT & 2000Gap handling : Appended to previous track

Used output format : Internal WAV RoutinesSample format : 44.100 Hz; 16 Bit; Stereo

TOC of the extracted CD

Track | Start | Length | Start sector | End sector --------------------------------------------------------- 1 | 0:00.00 | 5:09.17 | 0 | 23191 2 | 5:09.17 | 3:45.60 | 23192 | 40126 3 | 8:55.02 | 7:38.08 | 40127 | 74484 4 | 16:33.10 | 4:22.12 | 74485 | 94146 5 | 20:55.22 | 3:01.45 | 94147 | 107766 6 | 23:56.67 | 5:24.03 | 107767 | 132069 7 | 29:20.70 | 6:37.37 | 132070 | 161881 8 | 35:58.32 | 4:05.68 | 161882 | 180324 9 | 40:04.25 | 3:09.50 | 180325 | 194549 10 | 43:14.00 | 10:33.37 | 194550 | 242061

Track 1

Filename D:\01 - Cardboard Factory.wav

Pre-gap length 0:00:02.00

Peak level 93.9 % Extraction speed 33.0 X Track quality 100.0 % Test CRC AC19D5C8 Copy CRC AC19D5C8 Track not present in AccurateRip database Copy OK

Track 2

Filename D:\02 - Hot and Cold.wav

Peak level 93.6 % Extraction speed 33.9 X Track quality 100.0 % Test CRC 4E7BF0F1 Copy CRC 4E7BF0F1 Track not present in AccurateRip database Copy OK

Track 3

Filename D:\03 - Rebbe's Meal.wav

Peak level 95.3 % Extraction speed 32.4 X Track quality 100.0 % Test CRC EBDCE4CE Copy CRC EBDCE4CE Track not present in AccurateRip database Copy OK

Track 4

Filename D:\04 - Up.wav

Peak level 93.5 % Extraction speed 32.1 X Track quality 100.0 % Test CRC EA732663 Copy CRC EA732663 Track not present in AccurateRip database Copy OK

Track 5

Filename D:\05 - Washing Machine Song.wav

Peak level 94.6 % Extraction speed 24.3 X Track quality 99.9 % Test CRC 1ACAECAE Copy CRC 1ACAECAE Track not present in AccurateRip database Copy OK

Track 6

Filename D:\06 - Galician.wav

Peak level 96.5 % Extraction speed 26.2 X Track quality 99.9 % Test CRC 49285D05 Copy CRC 49285D05 Track not present in AccurateRip database Copy OK

Track 7

Filename D:\07 - Masks and Faces.wav

Peak level 95.4 % Extraction speed 29.9 X Track quality 100.0 % Test CRC 8F21D3DC Copy CRC 8F21D3DC Track not present in AccurateRip database Copy OK

Track 8

Filename D:\08 - Haphazard.wav

Peak level 94.0 % Extraction speed 25.4 X Track quality 100.0 % Test CRC 728F5678 Copy CRC 728F5678 Track not present in AccurateRip database Copy OK

Track 9

Filename D:\09 - Bitonal Song.wav

Peak level 26.5 % Extraction speed 25.9 X Track quality 100.0 % Test CRC 944879EC Copy CRC 944879EC Track not present in AccurateRip database Copy OK

Track 10

Filename D:\10 - The Gate.wav

Peak level 94.9 % Extraction speed 27.5 X Track quality 100.0 % Test CRC 3DCDA6B3 Copy CRC 3DCDA6B3 Track not present in AccurateRip database Copy OK

None of the tracks are present in the AccurateRip database

No errors occurred

End of status report

==== Log checksum B63DA71B03BA0D2787CEC57C1677273592CA5E3713545950D8A61DBB6DF40B30 ====
 
REM DATE 1990REM DISCID 870C9B0AREM COMMENT "ExactAudioCopy v1.0b3"PERFORMER "New Klezmer Trio"TITLE "Masks And Faces"FILE "01 - Cardboard Factory.flac" WAVE TRACK 01 AUDIO TITLE "Cardboard Factory" PERFORMER "New Klezmer Trio" INDEX 01 00:00:00FILE "02 - Hot And Cold.flac" WAVE TRACK 02 AUDIO TITLE "Hot And Cold" PERFORMER "New Klezmer Trio" INDEX 01 00:00:00FILE "03 - Rebbe's Meal.flac" WAVE TRACK 03 AUDIO TITLE "Rebbe's Meal" PERFORMER "New Klezmer Trio" INDEX 01 00:00:00FILE "04 - Up.flac" WAVE TRACK 04 AUDIO TITLE "Up" PERFORMER "New Klezmer Trio" INDEX 01 00:00:00FILE "05 - Washing Machine Song.flac" WAVE TRACK 05 AUDIO TITLE "Washing Machine Song" PERFORMER "New Klezmer Trio" INDEX 01 00:00:00FILE "06 - Galician.flac" WAVE TRACK 06 AUDIO TITLE "Galician" PERFORMER "New Klezmer Trio" INDEX 01 00:00:00FILE "07 - Masks And Faces.flac" WAVE TRACK 07 AUDIO TITLE "Masks And Faces" PERFORMER "New Klezmer Trio" INDEX 01 00:00:00FILE "08 - Haphazard.flac" WAVE TRACK 08 AUDIO TITLE "Haphazard" PERFORMER "New Klezmer Trio" INDEX 01 00:00:00FILE "09 - Bitonal Song.flac" WAVE TRACK 09 AUDIO TITLE "Bitonal Song" PERFORMER "New Klezmer Trio" INDEX 01 00:00:00FILE "10 - The Gate.flac" WAVE TRACK 10 AUDIO TITLE "The Gate" PERFORMER "New Klezmer Trio" INDEX 01 00:00:00


Трекер:  [ 27-Янв-2012 16:17 ]

  

Скачать .torrent

Размер .torrent файла 13 KB


Размер: 294 MB
Хэш (hash) релиза: 97379004cd4114ef0970927af50ce1ca80b4d31b

Еще никто не оставлял запись к записи скачать торрент New Klezmer Trio — Masks And Faces . Будь первым!

!Обратная связь