Скачать через торрент музыку Mel Torme - The Duke Ellington & Count Basie Songbooks бесплатно без регистрации torrent

Если у вас наблюдаются проблемы со скриншотами, переходом по ссылками, скачиванием торрентов - проблемы в блокировщике рекламы AdBlock. #хорошегоДня!


Статистика раздачи
Размер:  197 MB   |    Зарегистрирован:  5 лет 8 месяцев   |    .torrent скачан:  30 раз   |   
Раздают:  1  
   
Загрузка...
 
Автор Сообщение

Umakiro

avatar Umakiro


Mel Tormé — The Duke Ellington & Count Basie Songbooks (1961)

Жанр: Vocal Jazz
Год издания диска: 1984
Издатель (лейбл): Verve
Аудиокодек: FLAC (*.flac)
Тип рипа: tracks+.cue
Битрейт аудио: lossless
Продолжительность: 36:44
Источник: вата
Наличие сканов в содержимом раздачи: нет

Треклист:
01. I'm Gonna Go Fishin' (2:30)
02. Don't Get Around Much Anymore (2:33)
03. I Like The Sunrise (3:17)
04. Take The 'A' Train (2:54)
05. Reminiscing In Tempo (3:21)
06. Just A-Sittin' And A-Rockin' (2:21)
07. Down For Double (2:33)
08. I'm Gonna Move To The Outskirts Of Town (3:33)
09. Blue And Sentimental (3:57)
10. Oh, What A Night For Love (3:33)
11. Sent For You Yesterday (And Here You Come Today) (2:52)
12. In The Evening (When The Sun Goes Down) (3:20)

Rec.: Los Angeles, CA, December 12, 1960 and February 2, 1961.
 
 
X Lossless Decoder version 20101212 (126.2)

XLD extraction logfile from 2010-12-15 18:48:38 -0500

Mel TormГ© / The Duke Ellington And Count Basie Songbooks

Used drive : MATSHITA DVD-R UJ-85J (revision FM0S)

Ripper mode : CDParanoia III 10.2Disable audio cache : OK for the drive with a cache less than 2750KiBMake use of C2 pointers : NORead offset correction : 102Max retry count : 100Gap status : Analyzed, Appended

TOC of the extracted CD Track | Start | Length | Start sector | End sector --------------------------------------------------------- 1 | 00:00:32 | 02:29:28 | 32 | 11234 2 | 02:29:60 | 02:32:40 | 11235 | 22674 3 | 05:02:25 | 03:17:27 | 22675 | 37476 4 | 08:19:52 | 02:53:70 | 37477 | 50521 5 | 11:13:47 | 03:21:20 | 50522 | 65616 6 | 14:34:67 | 02:20:38 | 65617 | 76154 7 | 16:55:30 | 02:33:10 | 76155 | 87639 8 | 19:28:40 | 03:33:00 | 87640 | 103614 9 | 23:01:40 | 03:56:45 | 103615 | 121359 10 | 26:58:10 | 03:32:57 | 121360 | 137316 11 | 30:30:67 | 02:52:18 | 137317 | 150234 12 | 33:23:10 | 03:20:32 | 150235 | 165266

AccurateRip Summary Track 01 : OK (confidence 5) Track 02 : OK (confidence 5) Track 03 : OK (confidence 5) Track 04 : OK (confidence 5) Track 05 : OK (confidence 5) Track 06 : OK (confidence 5) Track 07 : OK (confidence 5) Track 08 : OK (confidence 5) Track 09 : OK (confidence 5) Track 10 : OK (confidence 5) Track 11 : OK (confidence 5) Track 12 : OK (confidence 5) ->All tracks accurately ripped.

All Tracks Album gain : 0.02 dB Peak : 0.931732 Statistics Read error : 0 Skipped (treated as error) : 0 Edge jitter error (maybe fixed) : 0 Atom jitter error (maybe fixed) : 0 Drift error (maybe fixed) : 0 Dropped bytes error (maybe fixed) : 0 Duplicated bytes error (maybe fixed) : 0

Track 01 Filename : /Users/Penguin17/Music/Mel TormГ© - The Duke Ellington And Count Basie Songbooks (1984) [FLAC]/01 I'm Gonna Go Fishin'.flac Pre-gap length : 00:02:32

Track gain : 0.26 dB Peak : 0.835785 CRC32 hash (test run) : E26A3555 CRC32 hash : E26A3555 CRC32 hash (skip zero) : A1A672BE AccurateRip signature : 7DE913A9 ->Accurately ripped! (confidence 5) Statistics Read error : 0 Skipped (treated as error) : 0 Edge jitter error (maybe fixed) : 0 Atom jitter error (maybe fixed) : 0 Drift error (maybe fixed) : 0 Dropped bytes error (maybe fixed) : 0 Duplicated bytes error (maybe fixed) : 0 Inconsistency in error sectors : 0

Track 02 Filename : /Users/Penguin17/Music/Mel TormГ© - The Duke Ellington And Count Basie Songbooks (1984) [FLAC]/02 Don't Get Around Much Anymore.flac Pre-gap length : 00:02:00

Track gain : 0.58 dB Peak : 0.663910 CRC32 hash (test run) : 6B81A45E CRC32 hash : 6B81A45E CRC32 hash (skip zero) : 0E72109E AccurateRip signature : 28BE3D2C ->Accurately ripped! (confidence 5) Statistics Read error : 0 Skipped (treated as error) : 0 Edge jitter error (maybe fixed) : 0 Atom jitter error (maybe fixed) : 0 Drift error (maybe fixed) : 0 Dropped bytes error (maybe fixed) : 0 Duplicated bytes error (maybe fixed) : 0 Inconsistency in error sectors : 0

Track 03 Filename : /Users/Penguin17/Music/Mel TormГ© - The Duke Ellington And Count Basie Songbooks (1984) [FLAC]/03 I Like The Sunrise.flac Pre-gap length : 00:02:00

Track gain : 4.01 dB Peak : 0.360901 CRC32 hash (test run) : D6A1B884 CRC32 hash : D6A1B884 CRC32 hash (skip zero) : 0FCCBB3B AccurateRip signature : DA079BCE ->Accurately ripped! (confidence 5) Statistics Read error : 0 Skipped (treated as error) : 0 Edge jitter error (maybe fixed) : 0 Atom jitter error (maybe fixed) : 0 Drift error (maybe fixed) : 0 Dropped bytes error (maybe fixed) : 0 Duplicated bytes error (maybe fixed) : 0 Inconsistency in error sectors : 0

Track 04 Filename : /Users/Penguin17/Music/Mel TormГ© - The Duke Ellington And Count Basie Songbooks (1984) [FLAC]/04 Take The "A" Train.flac Pre-gap length : 00:01:74

Track gain : 1.78 dB Peak : 0.631561 CRC32 hash (test run) : D29E0261 CRC32 hash : D29E0261 CRC32 hash (skip zero) : B0D7EC9D AccurateRip signature : 69C6083A ->Accurately ripped! (confidence 5) Statistics Read error : 0 Skipped (treated as error) : 0 Edge jitter error (maybe fixed) : 0 Atom jitter error (maybe fixed) : 0 Drift error (maybe fixed) : 0 Dropped bytes error (maybe fixed) : 0 Duplicated bytes error (maybe fixed) : 0 Inconsistency in error sectors : 0

Track 05 Filename : /Users/Penguin17/Music/Mel TormГ© - The Duke Ellington And Count Basie Songbooks (1984) [FLAC]/05 Reminiscing In Tempo.flac Pre-gap length : 00:01:74

Track gain : 6.43 dB Peak : 0.358887 CRC32 hash (test run) : 8987A2A0 CRC32 hash : 8987A2A0 CRC32 hash (skip zero) : F42A874F AccurateRip signature : C4A5F47F ->Accurately ripped! (confidence 5) Statistics Read error : 0 Skipped (treated as error) : 0 Edge jitter error (maybe fixed) : 0 Atom jitter error (maybe fixed) : 0 Drift error (maybe fixed) : 0 Dropped bytes error (maybe fixed) : 0 Duplicated bytes error (maybe fixed) : 0 Inconsistency in error sectors : 0

Track 06 Filename : /Users/Penguin17/Music/Mel TormГ© - The Duke Ellington And Count Basie Songbooks (1984) [FLAC]/06 Just A-Sittin' And A-Rockin'.flac Pre-gap length : 00:01:74

Track gain : 1.61 dB Peak : 0.712738 CRC32 hash (test run) : 748247FA CRC32 hash : 748247FA CRC32 hash (skip zero) : 892B79DC AccurateRip signature : 278CD42B ->Accurately ripped! (confidence 5) Statistics Read error : 0 Skipped (treated as error) : 0 Edge jitter error (maybe fixed) : 0 Atom jitter error (maybe fixed) : 0 Drift error (maybe fixed) : 0 Dropped bytes error (maybe fixed) : 0 Duplicated bytes error (maybe fixed) : 0 Inconsistency in error sectors : 0

Track 07 Filename : /Users/Penguin17/Music/Mel TormГ© - The Duke Ellington And Count Basie Songbooks (1984) [FLAC]/07 Down For Double.flac Pre-gap length : 00:02:00

Track gain : -1.98 dB Peak : 0.806946 CRC32 hash (test run) : 761C8A9B CRC32 hash : 761C8A9B CRC32 hash (skip zero) : 3F76BEDA AccurateRip signature : 3FD02F8C ->Accurately ripped! (confidence 5) Statistics Read error : 0 Skipped (treated as error) : 0 Edge jitter error (maybe fixed) : 0 Atom jitter error (maybe fixed) : 0 Drift error (maybe fixed) : 0 Dropped bytes error (maybe fixed) : 0 Duplicated bytes error (maybe fixed) : 0 Inconsistency in error sectors : 0

Track 08 Filename : /Users/Penguin17/Music/Mel TormГ© - The Duke Ellington And Count Basie Songbooks (1984) [FLAC]/08 I'm Gonna Move To The Outskirts Of Town.flac Pre-gap length : 00:02:00

Track gain : -1.93 dB Peak : 0.744873 CRC32 hash (test run) : 44548D19 CRC32 hash : 44548D19 CRC32 hash (skip zero) : C38854EB AccurateRip signature : 6E58FEEC ->Accurately ripped! (confidence 5) Statistics Read error : 0 Skipped (treated as error) : 0 Edge jitter error (maybe fixed) : 0 Atom jitter error (maybe fixed) : 0 Drift error (maybe fixed) : 0 Dropped bytes error (maybe fixed) : 0 Duplicated bytes error (maybe fixed) : 0 Inconsistency in error sectors : 0

Track 09 Filename : /Users/Penguin17/Music/Mel TormГ© - The Duke Ellington And Count Basie Songbooks (1984) [FLAC]/09 Blue And Sentimental.flac Pre-gap length : 00:02:00

Track gain : 2.04 dB Peak : 0.644531 CRC32 hash (test run) : 0EF00C6D CRC32 hash : 0EF00C6D CRC32 hash (skip zero) : 3B8E758F AccurateRip signature : CE64E82C ->Accurately ripped! (confidence 5) Statistics Read error : 0 Skipped (treated as error) : 0 Edge jitter error (maybe fixed) : 0 Atom jitter error (maybe fixed) : 0 Drift error (maybe fixed) : 0 Dropped bytes error (maybe fixed) : 0 Duplicated bytes error (maybe fixed) : 0 Inconsistency in error sectors : 0

Track 10 Filename : /Users/Penguin17/Music/Mel TormГ© - The Duke Ellington And Count Basie Songbooks (1984) [FLAC]/10 Oh, What A Night For Love.flac Pre-gap length : 00:02:00

Track gain : 0.82 dB Peak : 0.540192 CRC32 hash (test run) : C35D244D CRC32 hash : C35D244D CRC32 hash (skip zero) : 5166728A AccurateRip signature : 8FEDF15E ->Accurately ripped! (confidence 5) Statistics Read error : 0 Skipped (treated as error) : 0 Edge jitter error (maybe fixed) : 0 Atom jitter error (maybe fixed) : 0 Drift error (maybe fixed) : 0 Dropped bytes error (maybe fixed) : 0 Duplicated bytes error (maybe fixed) : 0 Inconsistency in error sectors : 0

Track 11 Filename : /Users/Penguin17/Music/Mel TormГ© - The Duke Ellington And Count Basie Songbooks (1984) [FLAC]/11 Sent For You Yesterday (And Here You Come Today).flac Pre-gap length : 00:01:74

Track gain : -2.37 dB Peak : 0.931732 CRC32 hash (test run) : AA04A4ED CRC32 hash : AA04A4ED CRC32 hash (skip zero) : 82A3DB04 AccurateRip signature : 565BEFD3 ->Accurately ripped! (confidence 5) Statistics Read error : 0 Skipped (treated as error) : 0 Edge jitter error (maybe fixed) : 0 Atom jitter error (maybe fixed) : 0 Drift error (maybe fixed) : 0 Dropped bytes error (maybe fixed) : 0 Duplicated bytes error (maybe fixed) : 0 Inconsistency in error sectors : 0

Track 12 Filename : /Users/Penguin17/Music/Mel TormГ© - The Duke Ellington And Count Basie Songbooks (1984) [FLAC]/12 In The Evening (When The Sun Goes Down).flac Pre-gap length : 00:02:00

Track gain : 1.36 dB Peak : 0.660614 CRC32 hash (test run) : C8205080 CRC32 hash : C8205080 CRC32 hash (skip zero) : 266EEF62 AccurateRip signature : 9AC31138 ->Accurately ripped! (confidence 5) Statistics Read error : 0 Skipped (treated as error) : 0 Edge jitter error (maybe fixed) : 0 Atom jitter error (maybe fixed) : 0 Drift error (maybe fixed) : 0 Dropped bytes error (maybe fixed) : 0 Duplicated bytes error (maybe fixed) : 0 Inconsistency in error sectors : 0

No errors occurred

End of status report
 
TITLE "The Duke Ellington And Count Basie Songbooks"PERFORMER "Mel Torme"CATALOG 0042282324825REM GENRE JazzREM DATE 1984REM DISCID 7C089B0CFILE "01. I'm Gonna Go Fishin'.flac" WAVE TRACK 01 AUDIO TITLE "I'm Gonna Go Fishin'" SONGWRITER "Duke Ellington/Peggy Lee" INDEX 00 00:00:00 INDEX 01 00:00:32 TRACK 02 AUDIO TITLE "Don't Get Around Much Anymore" SONGWRITER "Bob Russell/Duke Ellington" INDEX 00 02:27:28FILE "02. Don't Get Around Much Anymore.flac" WAVE INDEX 01 00:00:00 TRACK 03 AUDIO TITLE "I Like The Sunrise" SONGWRITER "Duke Ellington" INDEX 00 02:30:40FILE "03. I Like The Sunrise.flac" WAVE INDEX 01 00:00:00 TRACK 04 AUDIO TITLE "Take The 'A' Train" SONGWRITER "Billy Strayhorn" INDEX 00 03:15:28FILE "04. Take The 'A' Train.flac" WAVE INDEX 01 00:00:00 TRACK 05 AUDIO TITLE "Reminiscing In Tempo" SONGWRITER "Mel Torme/Duke Ellington" INDEX 00 02:51:71FILE "05. Reminiscing In Tempo.flac" WAVE INDEX 01 00:00:00 TRACK 06 AUDIO TITLE "Just A-Sittin' And A-Rockin'" SONGWRITER "Duke Ellington/Billy Strayhorn" INDEX 00 03:19:21FILE "06. Just A-Sittin' And A-Rockin'.flac" WAVE INDEX 01 00:00:00 TRACK 07 AUDIO TITLE "Down For Double" SONGWRITER "Freddie Green" INDEX 00 02:18:38FILE "07. Down For Double.flac" WAVE INDEX 01 00:00:00 TRACK 08 AUDIO TITLE "I'm Gonna Move To The Outskirts Of Town" SONGWRITER "Roy Jordan/William Weldon/Andy Razaf Williams/Andy Razaf/Bill Whelan" INDEX 00 02:31:10FILE "08. I'm Gonna Move To The Outskirts Of Town.flac" WAVE INDEX 01 00:00:00 TRACK 09 AUDIO TITLE "Blue And Sentimental" SONGWRITER "Jerry Livingston/Mack David/Count Basie" INDEX 00 03:31:00FILE "09. Blue And Sentimental.flac" WAVE INDEX 01 00:00:00 TRACK 10 AUDIO TITLE "Oh, What A Night For Love" SONGWRITER "Steve Allen/Neal Hefti" INDEX 00 03:54:45FILE "10. Oh, What A Night For Love.flac" WAVE INDEX 01 00:00:00 TRACK 11 AUDIO TITLE "Sent For You Yesterday (And Here You Come Today)" SONGWRITER "Eddie Durham/Count Basie/Jimmy Rushing" INDEX 00 03:30:58FILE "11. Sent For You Yesterday (And Here You Come Today).flac" WAVE INDEX 01 00:00:00 TRACK 12 AUDIO TITLE "In The Evening (When The Sun Goes Down)" SONGWRITER "Leroy Carr/Don Raye" INDEX 00 02:50:18FILE "12. In The Evening (When The Sun Goes Down).flac" WAVE INDEX 01 00:00:00
 
[CUETools log; Date: 03.12.2011 13:15:41; Version: 2.0.9]Pregap length 00:00:32.[CTDB TOCID: _zbOFjTk8j3EYCoDck6zw8brgx8-] disk not present in database.[AccurateRip ID: 000fb41b-00947361-7c089b0c] found.Track [ CRC ] Status 01 [7de913a9] (5/7) Accurately ripped 02 [28be3d2c] (5/7) Accurately ripped 03 [da079bce] (5/7) Accurately ripped 04 [69c6083a] (5/7) Accurately ripped 05 [c4a5f47f] (5/7) Accurately ripped 06 [278cd42b] (5/7) Accurately ripped 07 [3fd02f8c] (5/7) Accurately ripped 08 [6e58feec] (5/7) Accurately ripped 09 [ce64e82c] (5/7) Accurately ripped 10 [8fedf15e] (5/7) Accurately ripped 11 [565befd3] (5/7) Accurately ripped 12 [9ac31138] (5/7) Accurately ripped

Track Peak [ CRC32 ] [W/O NULL] -- 93,1 [CDAE722E] [11697B35] 01 83,5 [E26A3555] [A1A672BE] 02 66,3 [6B81A45E] [0E72109E] 03 36,0 [D6A1B884] [0FCCBB3B] 04 63,1 [D29E0261] [B0D7EC9D] 05 35,8 [8987A2A0] [F42A874F] 06 71,2 [748247FA] [892B79DC] 07 80,6 [761C8A9B] [3F76BEDA] 08 74,4 [44548D19] [C38854EB] 09 64,4 [0EF00C6D] [3B8E758F] 10 54,0 [C35D244D] [5166728A] 11 93,1 [AA04A4ED] [82A3DB04] 12 66,0 [C8205080] [266EEF62]


Трекер:  [ 27-Янв-2012 16:17 ]

  

Скачать .torrent

Размер .torrent файла 17 KB


Размер: 197 MB
Хэш (hash) релиза: fb037e8338f4486564388952401653aa6ad96ecf

Еще никто не оставлял запись к записи скачать торрент Mel Torme - The Duke Ellington & Count Basie Songbooks . Будь первым!

!Обратная связь