Скачать через торрент музыку Mel Torme — Mel Tormé Swings Shubert Alley бесплатно без регистрации torrent

Если у вас наблюдаются проблемы со скриншотами, переходом по ссылками, скачиванием торрентов - проблемы в блокировщике рекламы AdBlock. #хорошегоДня!


Статистика раздачи
Размер:  217 MB   |    Зарегистрирован:  5 лет 8 месяцев   |    .torrent скачан:  38 раз   |   
Раздают:  1  
   
Загрузка...
 
Автор Сообщение

Umakiro

avatar Umakiro


Mel Tormé — Mel Tormé Swings Shubert Alley (1960)

Жанр: Vocal Jazz
Год издания диска: 1984
Издатель (лейбл): Verve
Номер по каталогу: 821 581-2
Аудиокодек: FLAC (*.flac)
Тип рипа: tracks+.cue
Битрейт аудио: lossless
Продолжительность: 39:13
Источник: вата
Наличие сканов в содержимом раздачи: сетевые

Треклист:
01. Too Close For Comfort (4:06)
02. Once In Love With Amy (3:12)
03. A Sleepin' Bee (3:35)
04. On The Street Where You Live (2:55)
05. All I Need Is A Girl (3:06)
06. Just In Time (3:28)
07. Hello Young Lovers (3:09)
08. The Surrey With A Fringe On Top (3:01)
09. Old Devil Moon (2:48)
10. Whatever Lola Wants (3:21)
11. Too Darn Hot (2:48)
12. Lonely Town (3:43)

Mel Tormé with Marty Paich Orchestra

Rec.: Los Angeles, CA, January 21, February 4 & 11, 1960.
 
Exact Audio Copy V1.0 beta 1 from 15. November 2010

EAC extraction logfile from 27. June 2011, 10:46

Mel Tormé / Mel Tormé Swings Shubert Alley

Used drive : PIONEER DVD-RW DVR-109 Adapter: 0 ID: 0

Read mode : SecureUtilize accurate stream : YesDefeat audio cache : YesMake use of C2 pointers : No

Read offset correction : 48Overread into Lead-In and Lead-Out : NoFill up missing offset samples with silence : YesDelete leading and trailing silent blocks : NoNull samples used in CRC calculations : YesUsed interface : Native Win32 interface for Win NT & 2000Gap handling : Appended to previous track

Used output format : User Defined EncoderSelected bitrate : 320 kBit/sQuality : HighAdd ID3 tag : NoCommand line compressor : C:\Program Files\Exact Audio Copy\flac.exeAdditional command line options : -V -8 -T "artist=%a" -T "title=%t" -T "album=%g" -T "date=%y" -T "tracknumber=%n" -T "genre=%m" %s

TOC of the extracted CD

Track | Start | Length | Start sector | End sector --------------------------------------------------------- 1 | 0:00.32 | 4:05.60 | 32 | 18466 2 | 4:06.17 | 3:12.30 | 18467 | 32896 3 | 7:18.47 | 3:34.63 | 32897 | 49009 4 | 10:53.35 | 2:55.25 | 49010 | 62159 5 | 13:48.60 | 3:05.60 | 62160 | 76094 6 | 16:54.45 | 3:28.35 | 76095 | 91729 7 | 20:23.05 | 3:08.70 | 91730 | 105899 8 | 23:32.00 | 3:00.70 | 105900 | 119469 9 | 26:32.70 | 2:47.47 | 119470 | 132041 10 | 29:20.42 | 3:21.20 | 132042 | 147136 11 | 32:41.62 | 2:48.28 | 147137 | 159764 12 | 35:30.15 | 3:43.25 | 159765 | 176514

Track 1

Filename C:\Torrent\FLAC\Mel Tormé - Mel Tormé Swings Shubert Alley (1960) [FLAC]\01 - Too Close For Comfort.wav

Pre-gap length 0:00:02.42

Peak level 74.1 % Extraction speed 1.5 X Track quality 100.0 % Test CRC 3FDE965E Copy CRC 3FDE965E Accurately ripped (confidence 8) [46A285A8] Copy OK

Track 2

Filename C:\Torrent\FLAC\Mel Tormé - Mel Tormé Swings Shubert Alley (1960) [FLAC]\02 - Once In Love With Amy.wav

Pre-gap length 0:00:03.00

Peak level 91.8 % Extraction speed 1.6 X Track quality 100.0 % Test CRC 917A40F0 Copy CRC 917A40F0 Accurately ripped (confidence 8) [B6FAC3B4] Copy OK

Track 3

Filename C:\Torrent\FLAC\Mel Tormé - Mel Tormé Swings Shubert Alley (1960) [FLAC]\03 - A Sleepin' Bee.wav

Pre-gap length 0:00:02.36

Peak level 78.3 % Extraction speed 1.5 X Track quality 99.9 % Test CRC 814D6499 Copy CRC 814D6499 Accurately ripped (confidence 8) [6ABCCAEC] Copy OK

Track 4

Filename C:\Torrent\FLAC\Mel Tormé - Mel Tormé Swings Shubert Alley (1960) [FLAC]\04 - On The Street Where You Live.wav

Pre-gap length 0:00:02.98

Peak level 86.5 % Extraction speed 1.5 X Track quality 99.9 % Test CRC ED746F99 Copy CRC ED746F99 Accurately ripped (confidence 9) [0ECF75CA] Copy OK

Track 5

Filename C:\Torrent\FLAC\Mel Tormé - Mel Tormé Swings Shubert Alley (1960) [FLAC]\05 - All I Need Is A Girl.wav

Pre-gap length 0:00:02.90

Peak level 80.8 % Extraction speed 1.9 X Track quality 100.0 % Test CRC 74D425BA Copy CRC 74D425BA Accurately ripped (confidence 9) [A9E7DDAC] Copy OK

Track 6

Filename C:\Torrent\FLAC\Mel Tormé - Mel Tormé Swings Shubert Alley (1960) [FLAC]\06 - Just In Time.wav

Pre-gap length 0:00:02.73

Peak level 76.5 % Extraction speed 2.1 X Track quality 100.0 % Test CRC 9BE3FE45 Copy CRC 9BE3FE45 Accurately ripped (confidence 9) [CD7A77D4] Copy OK

Track 7

Filename C:\Torrent\FLAC\Mel Tormé - Mel Tormé Swings Shubert Alley (1960) [FLAC]\07 - Hello Young Lovers.wav

Pre-gap length 0:00:02.77

Peak level 75.9 % Extraction speed 1.8 X Track quality 99.9 % Test CRC 89F8A665 Copy CRC 89F8A665 Accurately ripped (confidence 9) [115D97A9] Copy OK

Track 8

Filename C:\Torrent\FLAC\Mel Tormé - Mel Tormé Swings Shubert Alley (1960) [FLAC]\08 - The Surrey With A Fringe On Top.wav

Pre-gap length 0:00:01.44

Peak level 81.7 % Extraction speed 2.2 X Track quality 100.0 % Test CRC 0A2CF888 Copy CRC 0A2CF888 Accurately ripped (confidence 9) [08CE0F61] Copy OK

Track 9

Filename C:\Torrent\FLAC\Mel Tormé - Mel Tormé Swings Shubert Alley (1960) [FLAC]\09 - Old Devil Moon.wav

Pre-gap length 0:00:02.02

Peak level 81.4 % Extraction speed 2.2 X Track quality 100.0 % Test CRC B6000386 Copy CRC B6000386 Accurately ripped (confidence 8) [4D2FFA7C] Copy OK

Track 10

Filename C:\Torrent\FLAC\Mel Tormé - Mel Tormé Swings Shubert Alley (1960) [FLAC]\10 - Whatever Lola Wants.wav

Pre-gap length 0:00:01.60

Peak level 75.9 % Extraction speed 2.4 X Track quality 100.0 % Test CRC 4FCF6B5B Copy CRC 4FCF6B5B Accurately ripped (confidence 9) [B70CD363] Copy OK

Track 11

Filename C:\Torrent\FLAC\Mel Tormé - Mel Tormé Swings Shubert Alley (1960) [FLAC]\11 - Too Darn Hot.wav

Pre-gap length 0:00:01.62

Peak level 67.4 % Extraction speed 2.3 X Track quality 100.0 % Test CRC CF25580F Copy CRC CF25580F Accurately ripped (confidence 9) [8475016D] Copy OK

Track 12

Filename C:\Torrent\FLAC\Mel Tormé - Mel Tormé Swings Shubert Alley (1960) [FLAC]\12 - Lonely Town.wav

Pre-gap length 0:00:01.97

Peak level 72.8 % Extraction speed 2.6 X Track quality 100.0 % Test CRC 9AAF3E33 Copy CRC 9AAF3E33 Accurately ripped (confidence 9) [057B38E2] Copy OK

All tracks accurately ripped

No errors occurred

End of status report

==== Log checksum EDF273495ABB2B1F403451BC77DACB6A129ED321E6C7FC4D669EE07750CA0A7E ====
 
REM GENRE VocalREM DATE 1960REM DISCID 8D09310CREM COMMENT "ExactAudioCopy v1.0b1"PERFORMER "Mel Torme"TITLE "Mel Torme Swings Shubert Alley"FILE "01. Too Close For Comfort.flac" WAVE TRACK 01 AUDIO PREGAP 00:00:32 INDEX 01 00:00:00 TRACK 02 AUDIO INDEX 00 04:02:60FILE "02. Once In Love With Amy.flac" WAVE INDEX 01 00:00:00 TRACK 03 AUDIO INDEX 00 03:10:03FILE "03. A Sleepin' Bee.flac" WAVE INDEX 01 00:00:00 TRACK 04 AUDIO INDEX 00 03:31:64FILE "04. On The Street Where You Live.flac" WAVE INDEX 01 00:00:00 TRACK 05 AUDIO INDEX 00 02:52:32FILE "05. All I Need Is A Girl.flac" WAVE INDEX 01 00:00:00 TRACK 06 AUDIO INDEX 00 03:03:05FILE "06. Just In Time.flac" WAVE INDEX 01 00:00:00 TRACK 07 AUDIO INDEX 00 03:25:52FILE "07. Hello Young Lovers.flac" WAVE INDEX 01 00:00:00 TRACK 08 AUDIO INDEX 00 03:07:37FILE "08. The Surrey With A Fringe On Top.flac" WAVE INDEX 01 00:00:00 TRACK 09 AUDIO INDEX 00 02:58:68FILE "09. Old Devil Moon.flac" WAVE INDEX 01 00:00:00 TRACK 10 AUDIO INDEX 00 02:46:02FILE "10. Whatever Lola Wants.flac" WAVE INDEX 01 00:00:00 TRACK 11 AUDIO INDEX 00 03:19:48FILE "11. Too Darn Hot.flac" WAVE INDEX 01 00:00:00 TRACK 12 AUDIO INDEX 00 02:46:30FILE "12. Lonely Town.flac" WAVE INDEX 01 00:00:00
 
[CUETools log; Date: 03.12.2011 21:37:29; Version: 2.0.9]Pregap length 00:00:32.[CTDB TOCID: PiaIO41023ykQ95cIc11EX..bKs-] disk not present in database.[AccurateRip ID: 0011df14-00a503c9-8d09310c] found.Track [ CRC ] Status 01 [46a285a8] (08/20) Accurately ripped 02 [b6fac3b4] (08/20) Accurately ripped 03 [6abccaec] (08/20) Accurately ripped 04 [0ecf75ca] (09/21) Accurately ripped 05 [a9e7ddac] (09/21) Accurately ripped 06 [cd7a77d4] (09/22) Accurately ripped 07 [115d97a9] (09/21) Accurately ripped 08 [08ce0f61] (09/21) Accurately ripped 09 [4d2ffa7c] (08/20) Accurately ripped 10 [b70cd363] (09/21) Accurately ripped 11 [8475016d] (09/22) Accurately ripped 12 [057b38e2] (09/21) Accurately rippedOffsetted by -424: 01 [7522ac8c] (07/20) Accurately ripped 02 [da092f24] (07/20) Accurately ripped 03 [c13d847f] (07/20) No match but offset 04 [424d425f] (07/21) No match but offset 05 [e62fe310] (07/21) Accurately ripped 06 [c1d8d459] (08/22) No match but offset 07 [c0d15cbb] (00/21) No match 08 [904bd354] (07/21) Accurately ripped 09 [7b46100b] (07/20) Accurately ripped 10 [b2501425] (07/21) No match but offset 11 [b0f5674e] (00/22) No match 12 [34f7650a] (00/21) No matchOffsetted by -416: 01 [8c0d893d] (00/20) No match 02 [4e653858] (00/20) No match 03 [4ed21b4f] (00/20) No match 04 [d4f9ef3a] (00/21) No match 05 [bc54181c] (00/21) No match 06 [08b579f4] (00/22) No match 07 [356fa3eb] (07/21) No match but offset 08 [7c24e21e] (00/21) No match 09 [fd0e5aba] (00/20) No match 10 [d4fac5a9] (00/21) No match 11 [436d29fc] (00/22) No match 12 [afc30490] (00/21) No matchOffsetted by -415: 01 [82d4c3d7] (00/20) No match 02 [283df965] (00/20) No match 03 [7b1eb2af] (00/20) No match 04 [c0850efc] (00/21) No match 05 [ee0404e2] (00/21) No match 06 [f01294f1] (00/22) No match 07 [1112d129] (00/21) No match 08 [19ddabe4] (00/21) No match 09 [a710ca85] (00/20) No match 10 [674a09c6] (00/21) No match 11 [191fa587] (08/22) Accurately ripped 12 [9f4218b3] (07/21) Accurately rippedOffsetted by 473: 01 [d4069510] (03/20) Accurately ripped 02 [e15c3caf] (03/20) Accurately ripped 03 [a585d859] (03/20) No match but offset 04 [c77c5789] (03/21) No match but offset 05 [852c18e8] (03/21) Accurately ripped 06 [296d63d3] (03/22) No match but offset 07 [3db14f11] (00/21) No match 08 [04c78597] (03/21) Accurately ripped 09 [21b7586a] (03/20) Accurately ripped 10 [4b3c4526] (03/21) No match but offset 11 [51d0eb06] (00/22) No match 12 [069edc9a] (00/21) No matchOffsetted by 481: 01 [46a02621] (00/20) No match 02 [6be1925a] (00/20) No match 03 [f0d1f6f7] (00/20) No match 04 [2f319140] (00/21) No match 05 [3b81d174] (00/21) No match 06 [0bd693f8] (00/22) No match 07 [cf2dbe7b] (03/21) No match but offset 08 [3482950f] (00/21) No match 09 [a1ea3e7f] (00/20) No match 10 [dcd6445b] (00/21) No match 11 [92d6d913] (00/22) No match 12 [94acee57] (00/21) No matchOffsetted by 482: 01 [ed3deb49] (00/20) No match 02 [1d664b25] (00/20) No match 03 [d28072b0] (00/20) No match 04 [157ba18f] (00/21) No match 05 [78ecc5f8] (00/21) No match 06 [cf90f757] (00/22) No match 07 [aa0fec6f] (00/21) No match 08 [d27d5eea] (00/21) No match 09 [1836ae58] (00/20) No match 10 [ff0a1916] (00/21) No match 11 [6455a3a3] (03/22) Accurately ripped 12 [a693109c] (03/21) Accurately ripped

Track Peak [ CRC32 ] [W/O NULL] [ LOG ] -- 91,8 [289AC8AF] [41FFF556] 01 74,1 [3FDE965E] [CB53CB1B] CRC32 02 91,8 [917A40F0] [E3260F38] CRC32 03 78,3 [814D6499] [0E26A654] CRC32 04 86,5 [ED746F99] [3064CA88] CRC32 05 80,8 [74D425BA] [C9D44DF6] CRC32 06 76,5 [9BE3FE45] [16ACC370] CRC32 07 75,9 [89F8A665] [C4D52BBD] CRC32 08 81,7 [0A2CF888] [9A1576B0] CRC32 09 81,4 [B6000386] [D6EAD268] CRC32 10 75,9 [4FCF6B5B] [F8BDB2F2] CRC32 11 67,4 [CF25580F] [B5194C28] CRC32 12 72,8 [9AAF3E33] [9E123D68] CRC32


Трекер:  [ 27-Янв-2012 16:16 ]

  

Скачать .torrent

Размер .torrent файла 18 KB


Размер: 217 MB
Хэш (hash) релиза: a9766130f1a83ea726e2452d377a616495fa64dc

Еще никто не оставлял запись к записи скачать торрент Mel Torme — Mel Tormé Swings Shubert Alley . Будь первым!

!Обратная связь