Скачать через торрент музыку Jimmy Scott - Over The Rainbow бесплатно без регистрации torrent

Если у вас наблюдаются проблемы со скриншотами, переходом по ссылками, скачиванием торрентов - проблемы в блокировщике рекламы AdBlock. #хорошегоДня!


Статистика раздачи
Размер:  307 MB   |    Зарегистрирован:  5 лет 8 месяцев   |    .torrent скачан:  34 раза   |   
Раздают:  1  
   
Загрузка...
 
Автор Сообщение

Umakiro

avatar Umakiro


Jimmy Scott - Over The Rainbow

Жанр: Vocal Jazz
Год издания диска: 2001
Издатель (лейбл): Milestone
Номер по каталогу: MCD-9314-2
Аудиокодек: FLAC (*.flac)
Тип рипа: image+.cue
Битрейт аудио: lossless
Продолжительность: 56:30
Источник (релизер): intothe
Наличие сканов в содержимом раздачи: да
Треклист:
01. Pennies From Heaven (3:19)
02. Over The Rainbow (3:48)
03. All Or Nothing At All (5:45)
04. Strange Fruit (3:57)
05. Don't Take Your Love From Me (5:27)
06. Just Friends (5:35)
07. P.S. I Love You (4:50)
08. Everybody's Somebody's Fool (4:34)
09. If You Only Knew (3:20)
10. I Got It Bad (And That Ain't Good) (5:00)
11. I'll Close My Eyes (5:04)
12. When Did You Leave Heaven? (5:51)
 
Exact Audio Copy V0.99 prebeta 5 from 4. May 2009

EAC extraction logfile from 12. December 2011, 13:45

Jimmy Scott / Over The Rainbow

Used drive : _NEC DVD_RW ND-3500AG Adapter: 0 ID: 0

Read mode : SecureUtilize accurate stream : YesDefeat audio cache : YesMake use of C2 pointers : No

Read offset correction : 48Overread into Lead-In and Lead-Out : NoFill up missing offset samples with silence : YesDelete leading and trailing silent blocks : NoNull samples used in CRC calculations : YesUsed interface : Native Win32 interface for Win NT & 2000

Used output format : User Defined EncoderSelected bitrate : 768 kBit/sQuality : HighAdd ID3 tag : NoCommand line compressor : C:\Program Files\Exact Audio Copy\FLAC\FLAC.EXEAdditional command line options : -6 -V -T "ARTIST=%a" -T "TITLE=%t" -T "ALBUM=%g" -T "DATE=%y" -T "TRACKNUMBER=%n" -T "GENRE=%m" -T "COMMENT=%e" %s -o %d

TOC of the extracted CD

Track | Start | Length | Start sector | End sector --------------------------------------------------------- 1 | 0:00.00 | 3:18.47 | 0 | 14896 2 | 3:18.47 | 3:48.25 | 14897 | 32021 3 | 7:06.72 | 5:44.60 | 32022 | 57881 4 | 12:51.57 | 3:56.48 | 57882 | 75629 5 | 16:48.30 | 5:27.37 | 75630 | 100191 6 | 22:15.67 | 5:35.03 | 100192 | 125319 7 | 27:50.70 | 4:49.42 | 125320 | 147036 8 | 32:40.37 | 4:34.13 | 147037 | 167599 9 | 37:14.50 | 3:19.65 | 167600 | 182589 10 | 40:34.40 | 5:00.05 | 182590 | 205094 11 | 45:34.45 | 5:04.17 | 205095 | 227911 12 | 50:38.62 | 5:50.63 | 227912 | 254224

Range status and errors

Selected range

Filename J:\eMusic\Rip\Jimmy Scott - Over The Rainbow.wav

Peak level 100.0 % Range quality 100.0 % Test CRC 6626CF51 Copy CRC 6626CF51 Copy OK

No errors occurred

AccurateRip summary

Track 1 accurately ripped (confidence 4) [AC752C1D]Track 2 accurately ripped (confidence 4) [E4D8B170]Track 3 accurately ripped (confidence 4) [A33EEA3E]Track 4 accurately ripped (confidence 4) [13407AF5]Track 5 accurately ripped (confidence 4) [F62782E5]Track 6 accurately ripped (confidence 4) [8FADB09A]Track 7 accurately ripped (confidence 4) [9D9BE81F]Track 8 accurately ripped (confidence 4) [DB07284F]Track 9 accurately ripped (confidence 4) [209748AE]Track 10 accurately ripped (confidence 4) [7149BA12]Track 11 accurately ripped (confidence 4) [7A24A01A]Track 12 accurately ripped (confidence 4) [1E0A7F95]

All tracks accurately ripped

End of status report
 
REM GENRE JazzREM DATE 2000REM DISCID 8A0D3D0CREM COMMENT "ExactAudioCopy v0.99pb5"PERFORMER "Jimmy Scott"TITLE "Over The Rainbow"FILE "Jimmy Scott - Over The Rainbow.flac" WAVE TRACK 01 AUDIO TITLE "Pennies From Heaven" PERFORMER "Jimmy Scott" INDEX 01 00:00:00 TRACK 02 AUDIO TITLE "Over The Rainbow" PERFORMER "Jimmy Scott" INDEX 00 03:15:70 INDEX 01 03:18:47 TRACK 03 AUDIO TITLE "All Or Nothing At All" PERFORMER "Jimmy Scott" INDEX 01 07:06:72 TRACK 04 AUDIO TITLE "Strange Fruit" PERFORMER "Jimmy Scott" INDEX 01 12:51:57 TRACK 05 AUDIO TITLE "Don't Take Your Love From Me" PERFORMER "Jimmy Scott" INDEX 00 16:45:47 INDEX 01 16:48:30 TRACK 06 AUDIO TITLE "Just Friends" PERFORMER "Jimmy Scott" INDEX 00 22:14:10 INDEX 01 22:15:67 TRACK 07 AUDIO TITLE "P.S. I Love You" PERFORMER "Jimmy Scott" INDEX 01 27:50:70 TRACK 08 AUDIO TITLE "Everybody's Somebody's Fool" PERFORMER "Jimmy Scott" INDEX 01 32:40:37 TRACK 09 AUDIO TITLE "If You Only Knew" PERFORMER "Jimmy Scott" INDEX 00 37:11:52 INDEX 01 37:14:50 TRACK 10 AUDIO TITLE "I Got It Bad (And That Ain't Good)" PERFORMER "Jimmy Scott" INDEX 00 40:33:51 INDEX 01 40:34:40 TRACK 11 AUDIO TITLE "I'll Close My Eyes" PERFORMER "Jimmy Scott" INDEX 01 45:34:45 TRACK 12 AUDIO TITLE "When Did You Leave Heaven?" PERFORMER "Jimmy Scott" INDEX 00 50:37:10 INDEX 01 50:38:62
There have been few 75-year-old vocalists working in any popular music style that sounded as good as Scott did on this session from late 2000, aided by contributions from top players like Joe Beck (guitar) and Grady Tate (drums). Scott loves those sentimental songs, and this set is full of standards in that vein, from the title track and "Pennies From Heaven" to "P.S. I Love You" (the Jenkins-Mercer composition, not the Beatles song) and "I Got It Bad (And That Ain't Good)." For the most part the arrangements are appropriately small-scale, letting Scott's voice hog the foreground and squeeze plenty of nuances from his sad vibrato. "Over the Rainbow" itself suffers from an excessive wash of vibes, but fortunately that's not typical of most of the set, which just does toe the right side of gushing emotion. It is a refreshing change of pace, though, when a trace of somber darkness is introduced on the foreboding, doomy arrangement of "Strange Fruit," which benefits from a guest shot by David "Fathead" Newman on tenor sax. - by Richie Unterberger, AMG
Jimmy Scott (Vocals)
Joe Beck (Guitar, Alto Guitar, Acoustic Guitar) - 1-5,7,8,11
George Mraz (Double Bass) - 1,3-5,7,9,11
Grady Tate (Drums) - 1,3-5,7,9,11
Michael Kanan (Piano) - 3,9,10,12
Larry Willis (Piano) - 1,4,6
Joe Locke (Vibes) - 2,5,8,11
Gregoire Maret (Harmonica) - 6,9,11
Bob Kindred (Tenor Saxophone) - 1,7
Justin Robinson (Alto Saxophone) - 3
David "Fathead" Newman (Tenor Saxophone) - 4


Трекер:  [ 27-Янв-2012 16:15 ]

  

Скачать .torrent

Размер .torrent файла 13 KB


Размер: 307 MB
Хэш (hash) релиза: 82fa47d93a419943c1a0cb28c8849ad17b52ff8f

Еще никто не оставлял запись к записи скачать торрент Jimmy Scott - Over The Rainbow . Будь первым!

!Обратная связь