Скачать через торрент музыку Joe Pass — One For My Baby — 1989, FLAC бесплатно без регистрации torrent

Если у вас наблюдаются проблемы со скриншотами, переходом по ссылками, скачиванием торрентов - проблемы в блокировщике рекламы AdBlock. #хорошегоДня!


Статистика раздачи
Размер:  268 MB   |    Зарегистрирован:  5 лет 8 месяцев   |    .torrent скачан:  35 раз   |   
Раздают:  1  
   
Загрузка...
 
Автор Сообщение

Umakiro

avatar Umakiro


Joe Pass – One For My Baby

Жанр: Bop
Год издания диска: 1989
Издатель (лейбл): Pablo
Номер по каталогу: PACD-2310-936-2
Аудиокодек: FLAC (*.flac)
Тип рипа: tracks+.cue
Битрейт аудио: lossless
Продолжительность: 50:25
Источник: вата
Наличие сканов в содержимом раздачи: да

Треклист:
01. Bluesology (5:57)
02. One For My Baby (And One Mor For The Road) (4:51)
03. J.P. Blues (7:48)
04. Poinciana (6:33)
05. (I Don't Stand A) Ghost Of A Chance With You (6:04)
06. I Remember You (6:17)
07. Bay City Blues (7:07)
08. The Song Is You (5:48)

Personnel:
Joe Pass - guitar
Plas Johnson - tenor saxophone
Gerald Wiggins - piano, organ
Andy Simpkins - bass
Tootie Heath - drums

Rec.: Group IV Recording Studios, Hollywood, CA, December 28, 1988.
 
 
Exact Audio Copy V0.99 prebeta 4 from 23. January 2008

EAC extraction logfile from 19. November 2010, 1:17

Joe Pass / One For My Baby

Used drive : HL-DT-STDVD-RAM GSA-H55N Adapter: 0 ID: 0

Read mode : SecureUtilize accurate stream : YesDefeat audio cache : YesMake use of C2 pointers : No

Read offset correction : 102Overread into Lead-In and Lead-Out : YesFill up missing offset samples with silence : YesDelete leading and trailing silent blocks : NoNull samples used in CRC calculations : YesUsed interface : Installed external ASPI interfaceGap handling : Appended to previous track

Used output format : User Defined EncoderSelected bitrate : 768 kBit/sQuality : HighAdd ID3 tag : NoCommand line compressor : C:\Program Files\Exact Audio Copy\Flac\flac.exeAdditional command line options : -8 -V -T "ARTIST=%a" -T "TITLE=%t" -T "ALBUM=%g" -T "DATE=%y" -T "TRACKNUMBER=%n" -T "GENRE=%m" -T "COMMENT=EAC FLAC -8" %s

TOC of the extracted CD

Track | Start | Length | Start sector | End sector --------------------------------------------------------- 1 | 0:00.00 | 5:57.07 | 0 | 26781 2 | 5:57.07 | 4:50.63 | 26782 | 48594 3 | 10:47.70 | 7:48.00 | 48595 | 83694 4 | 18:35.70 | 6:33.27 | 83695 | 113196 5 | 25:09.22 | 6:04.25 | 113197 | 140521 6 | 31:13.47 | 6:17.05 | 140522 | 168801 7 | 37:30.52 | 7:06.55 | 168802 | 200806 8 | 44:37.32 | 5:47.53 | 200807 | 226884

Track 1

Filename H:\Rips\01 - Bluesology.wav

Pre-gap length 0:00:02.00

Peak level 95.0 % Track quality 100.0 % Test CRC 1650289A Copy CRC 1650289A Accurately ripped (confidence 2) [164DBE37] Copy OK

Track 2

Filename H:\Rips\02 - One For My Baby (And One Mor For The Road).wav

Pre-gap length 0:00:01.89

Peak level 62.5 % Track quality 100.0 % Test CRC 476C93A3 Copy CRC 476C93A3 Accurately ripped (confidence 2) [05667472] Copy OK

Track 3

Filename H:\Rips\03 - J.P. Blues.wav

Pre-gap length 0:00:00.33

Peak level 71.4 % Track quality 100.0 % Test CRC 84D73FA8 Copy CRC 84D73FA8 Accurately ripped (confidence 2) [CE3A2426] Copy OK

Track 4

Filename H:\Rips\04 - Poinciana.wav

Pre-gap length 0:00:02.64

Peak level 55.8 % Track quality 100.0 % Test CRC B5D7E449 Copy CRC B5D7E449 Accurately ripped (confidence 2) [EBF24608] Copy OK

Track 5

Filename H:\Rips\05 - (I Don't Stand A) Ghost Of A Chance With You.wav

Pre-gap length 0:00:01.80

Peak level 53.5 % Track quality 100.0 % Test CRC 76701486 Copy CRC 76701486 Accurately ripped (confidence 2) [73C1FEA2] Copy OK

Track 6

Filename H:\Rips\06 - I Remember You.wav

Pre-gap length 0:00:02.00

Peak level 63.5 % Track quality 100.0 % Test CRC 32268938 Copy CRC 32268938 Accurately ripped (confidence 2) [A45750E2] Copy OK

Track 7

Filename H:\Rips\07 - Bay City Blues.wav

Pre-gap length 0:00:02.06

Peak level 65.5 % Track quality 100.0 % Test CRC C0F362E0 Copy CRC C0F362E0 Accurately ripped (confidence 2) [585881B7] Copy OK

Track 8

Filename H:\Rips\08 - The Song Is You.wav

Pre-gap length 0:00:02.22

Peak level 96.1 % Track quality 100.0 % Test CRC 996B0ADD Copy CRC 996B0ADD Accurately ripped (confidence 2) [965F62C8] Copy OK

All tracks accurately ripped

No errors occurred

End of status report
 
REM GENRE JazzREM DATE 1988REM DISCID 700BD108REM COMMENT "ExactAudioCopy v0.99pb4"PERFORMER "Joe Pass"TITLE "One For My Baby"FILE "01 - Bluesology.flac" WAVE TRACK 01 AUDIO TITLE "Bluesology" PERFORMER "Joe Pass" INDEX 01 00:00:00 TRACK 02 AUDIO TITLE "One For My Baby (And One Mor For The Road)" PERFORMER "Joe Pass" INDEX 00 05:55:15FILE "02 - One For My Baby (And One Mor For The Road).flac" WAVE INDEX 01 00:00:00 TRACK 03 AUDIO TITLE "J.P. Blues" PERFORMER "Joe Pass" INDEX 00 04:50:38FILE "03 - J.P. Blues.flac" WAVE INDEX 01 00:00:00 TRACK 04 AUDIO TITLE "Poinciana" PERFORMER "Joe Pass" INDEX 00 07:45:27FILE "04 - Poinciana.flac" WAVE INDEX 01 00:00:00 TRACK 05 AUDIO TITLE "(I Don't Stand A) Ghost Of A Chance With You" PERFORMER "Joe Pass" INDEX 00 06:31:42FILE "05 - (I Don't Stand A) Ghost Of A Chance With You.flac" WAVE INDEX 01 00:00:00 TRACK 06 AUDIO TITLE "I Remember You" PERFORMER "Joe Pass" INDEX 00 06:02:25FILE "06 - I Remember You.flac" WAVE INDEX 01 00:00:00 TRACK 07 AUDIO TITLE "Bay City Blues" PERFORMER "Joe Pass" INDEX 00 06:15:00FILE "07 - Bay City Blues.flac" WAVE INDEX 01 00:00:00 TRACK 08 AUDIO TITLE "The Song Is You" PERFORMER "Joe Pass" INDEX 00 07:04:38FILE "08 - The Song Is You.flac" WAVE INDEX 01 00:00:00


Трекер:  [ 27-Янв-2012 16:14 ]

  

Скачать .torrent

Размер .torrent файла 12 KB


Размер: 268 MB
Хэш (hash) релиза: 263cd3646ecec1273007aa280aa183a137067831

Еще никто не оставлял запись к записи скачать торрент Joe Pass — One For My Baby — 1989, FLAC . Будь первым!

!Обратная связь