Скачать через торрент музыку Count Basie — Kansas City 7 бесплатно без регистрации torrent

Если у вас наблюдаются проблемы со скриншотами, переходом по ссылками, скачиванием торрентов - проблемы в блокировщике рекламы AdBlock. #хорошегоДня!


Статистика раздачи
Размер:  303 MB   |    Зарегистрирован:  5 лет 8 месяцев   |    .torrent скачан:  38 раз   |   
Раздают:  1  
   
Загрузка...
 
Автор Сообщение

Umakiro

avatar Umakiro


Count Basie – Kansas City 7 (1980)

Жанр: Bop, Swing
Год издания диска: 1992
Издатель (лейбл): Pablo
Номер по каталогу: OJCCD-690-2
Аудиокодек: FLAC (*.flac)
Тип рипа: tracks+.cue
Битрейт аудио: lossless
Продолжительность: 53:59
Источник: вата
Наличие сканов в содержимом раздачи: да

Треклист:
01. Jaylock (7:17)
02. Exactly Like You (8:01)
03. I'll Always Be In Love With You (7:29)
04. If I Could Be With You One Hour Tonight (6:20)
05. Honi Coles (6:48)
06. Blues For Norman (8:52)
07. Count Me In (9:12)

Personnel:
Count Basie - p
Freddie Hubbard - tp, flgn
J.J. Johnson - tb
Eddie "Lockjaw" Davis - ts
Joe Pass - g
John Heard - b
Jake Hanna - d

Rec.: Cherokee Studios, Hollywood, CA, April 10, 1980.
 
 
Exact Audio Copy V0.99 prebeta 3 from 28. July 2007

EAC extraction logfile from 4. May 2009, 13:41

Count Basie / Kansa City 7

Used drive : TSSTcorpDVD+-RW TS-L632H Adapter: 1 ID: 0

Read mode : SecureUtilize accurate stream : YesDefeat audio cache : YesMake use of C2 pointers : No

Read offset correction : 6Overread into Lead-In and Lead-Out : NoFill up missing offset samples with silence : YesDelete leading and trailing silent blocks : NoNull samples used in CRC calculations : YesUsed interface : Native Win32 interface for Win NT & 2000Gap handling : Appended to previous track

Used output format : User Defined EncoderSelected bitrate : 128 kBit/sQuality : HighAdd ID3 tag : NoCommand line compressor : C:\Program Files\Exact Audio Copy\Flac\flac.exeAdditional command line options : -V -8 -T "artist=%a" -T "title=%t" -T "album=%g" -T "date=%y" -T "tracknumber=%n" -T "genre=%m" %s

TOC of the extracted CD

Track | Start | Length | Start sector | End sector --------------------------------------------------------- 1 | 0:00.00 | 7:17.10 | 0 | 32784 2 | 7:17.10 | 8:00.67 | 32785 | 68851 3 | 15:18.02 | 7:29.15 | 68852 | 102541 4 | 22:47.17 | 6:20.25 | 102542 | 131066 5 | 29:07.42 | 6:48.08 | 131067 | 161674 6 | 35:55.50 | 8:51.50 | 161675 | 201549 7 | 44:47.25 | 9:12.12 | 201550 | 242961

Track 1

Filename C:\Users\Alex\Torrents\Rips\Count Basie - 1991 - Kansa City 7\01 - Jaylock.wav

Pre-gap length 0:00:02.00

Peak level 99.6 % Track quality 100.0 % Test CRC 7F652725 Copy CRC 7F652725 Track not present in AccurateRip database Copy OK

Track 2

Filename C:\Users\Alex\Torrents\Rips\Count Basie - 1991 - Kansa City 7\02 - Exactly Like You.wav

Pre-gap length 0:00:01.68

Peak level 100.0 % Track quality 100.0 % Test CRC 3A2C7E26 Copy CRC 3A2C7E26 Track not present in AccurateRip database Copy OK

Track 3

Filename C:\Users\Alex\Torrents\Rips\Count Basie - 1991 - Kansa City 7\03 - I'll Always Be In Love With You.wav

Pre-gap length 0:00:02.00

Peak level 100.0 % Track quality 100.0 % Test CRC 8BBF8CBD Copy CRC 8BBF8CBD Track not present in AccurateRip database Copy OK

Track 4

Filename C:\Users\Alex\Torrents\Rips\Count Basie - 1991 - Kansa City 7\04 - If I Could Be With You One Hour Tonight.wav

Pre-gap length 0:00:01.70

Peak level 78.0 % Track quality 100.0 % Test CRC 7A567ED4 Copy CRC 7A567ED4 Track not present in AccurateRip database Copy OK

Track 5

Filename C:\Users\Alex\Torrents\Rips\Count Basie - 1991 - Kansa City 7\05 - Honi Coles.wav

Pre-gap length 0:00:01.35

Peak level 99.7 % Track quality 99.9 % Test CRC F6EA40B5 Copy CRC F6EA40B5 Track not present in AccurateRip database Copy OK

Track 6

Filename C:\Users\Alex\Torrents\Rips\Count Basie - 1991 - Kansa City 7\06 - Blues For Norman.wav

Pre-gap length 0:00:01.60

Peak level 86.3 % Track quality 100.0 % Test CRC E6D1AA08 Copy CRC E6D1AA08 Track not present in AccurateRip database Copy OK

Track 7

Filename C:\Users\Alex\Torrents\Rips\Count Basie - 1991 - Kansa City 7\07 - Count Me In.wav

Pre-gap length 0:00:02.15

Peak level 100.0 % Track quality 100.0 % Test CRC 0602487F Copy CRC 0602487F Track not present in AccurateRip database Copy OK

None of the tracks are present in the AccurateRip database

No errors occurred

End of status report
 
REM GENRE JazzREM DATE 1980REM DISCID 6D0CA707REM COMMENT "ExactAudioCopy v0.99pb3"PERFORMER "Count Basie"TITLE "Kansas City 7"FILE "01. Jaylock.flac" WAVE TRACK 01 AUDIO TITLE "Jaylock" PERFORMER "Count Basie" INDEX 01 00:00:00 TRACK 02 AUDIO TITLE "Exactly Like You" PERFORMER "Count Basie" INDEX 00 07:15:17FILE "02. Exactly Like You.flac" WAVE INDEX 01 00:00:00 TRACK 03 AUDIO TITLE "I'll Always Be In Love With You" PERFORMER "Count Basie" INDEX 00 07:58:67FILE "03. I'll Always Be In Love With You.flac" WAVE INDEX 01 00:00:00 TRACK 04 AUDIO TITLE "If I Could Be With You One Hour Tonight" PERFORMER "Count Basie" INDEX 00 07:27:20FILE "04. If I Could Be With You One Hour Tonight.flac" WAVE INDEX 01 00:00:00 TRACK 05 AUDIO TITLE "Honi Coles" PERFORMER "Count Basie" INDEX 00 06:18:65FILE "05. Honi Coles.flac" WAVE INDEX 01 00:00:00 TRACK 06 AUDIO TITLE "Blues For Norman" PERFORMER "Count Basie" INDEX 00 06:46:23FILE "06. Blues For Norman.flac" WAVE INDEX 01 00:00:00 TRACK 07 AUDIO TITLE "Count Me In" PERFORMER "Count Basie" INDEX 00 08:49:35FILE "07. Count Me In.flac" WAVE INDEX 01 00:00:00


Трекер:  [ 27-Янв-2012 16:14 ]

  

Скачать .torrent

Размер .torrent файла 13 KB


Размер: 303 MB
Хэш (hash) релиза: bd0870e4e9a71f7117de9e500293aa39da6cbf78

Еще никто не оставлял запись к записи скачать торрент Count Basie — Kansas City 7 . Будь первым!

!Обратная связь