Скачать через торрент музыку Benny Green — Naturally — 2000, FLAC бесплатно без регистрации torrent

Если у вас наблюдаются проблемы со скриншотами, переходом по ссылками, скачиванием торрентов - проблемы в блокировщике рекламы AdBlock. #хорошегоДня!


Статистика раздачи
Размер:  199 MB   |    Зарегистрирован:  5 лет 8 месяцев   |    .torrent скачан:  39 раз   |   
Раздают:  1  
   
Загрузка...
 
Автор Сообщение

Umakiro

avatar Umakiro


Benny Green – Naturally

Жанр: Post-Bop
Год издания диска: 2000
Издатель (лейбл): TELARC
Номер по каталогу: CD-83498
Аудиокодек: FLAC (*.flac)
Тип рипа: tracks+.cue
Битрейт аудио: lossless
Продолжительность: 52:37
Источник: вата
Наличие сканов в содержимом раздачи: да

Треклист:
01. Love You Madly (5:05)
02. Naturally (6:40)
03. Pittsburgh Brethren (5:44)
04. Captain Hook (7:21)
05. Grooveyard (6:08)
06. Learnin' The Blues (4:10)
07. Russelin' (5:48)
08. Beg Your Parlan (6:47)
09. Lester Left Town (4:53)

Personnel:
Benny Green - p
Russell Malone - g
Christian McBride - b

Rec.: Clinton Studio B, NYC, NY, January 16 & 17, 2000.
 
 
Exact Audio Copy V1.0 beta 1 from 15. November 2010

EAC extraction logfile from 6. May 2011, 15:28

Benny Green / Naturally

Used drive : Optiarc DVD RW AD-7240S Adapter: 0 ID: 2

Read mode : SecureUtilize accurate stream : YesDefeat audio cache : YesMake use of C2 pointers : No

Read offset correction : 48Overread into Lead-In and Lead-Out : NoFill up missing offset samples with silence : YesDelete leading and trailing silent blocks : NoNull samples used in CRC calculations : YesUsed interface : Native Win32 interface for Win NT & 2000Gap handling : Appended to previous track

Used output format : User Defined EncoderSelected bitrate : 896 kBit/sQuality : HighAdd ID3 tag : NoCommand line compressor : C:\Program Files (x86)\Exact Audio Copy\Flac\flac.exeAdditional command line options : -V -8 -T "artist=%a" -T "title=%t" -T "album=%g" -T "date=%y" -T "tracknumber=%n" -T "genre=%m" %s

TOC of the extracted CD

Track | Start | Length | Start sector | End sector --------------------------------------------------------- 1 | 0:00.00 | 5:05.12 | 0 | 22886 2 | 5:05.12 | 6:39.40 | 22887 | 52851 3 | 11:44.52 | 5:43.58 | 52852 | 78634 4 | 17:28.35 | 7:21.32 | 78635 | 111741 5 | 24:49.67 | 6:07.58 | 111742 | 139324 6 | 30:57.50 | 4:10.32 | 139325 | 158106 7 | 35:08.07 | 5:48.05 | 158107 | 184211 8 | 40:56.12 | 6:47.30 | 184212 | 214766 9 | 47:43.42 | 4:53.30 | 214767 | 236771

Track 1

Filename D:\Rips\Benny Green - 2000 - Naturally (FLAC)\01 - Love You Madly.wav

Pre-gap length 0:00:02.00

Peak level 91.6 % Extraction speed 2.4 X Track quality 99.9 % Test CRC 4D8FD1E5 Copy CRC 4D8FD1E5 Accurately ripped (confidence 3) [11603DA5] Copy OK

Track 2

Filename D:\Rips\Benny Green - 2000 - Naturally (FLAC)\02 - Naturally.wav

Peak level 100.0 % Extraction speed 3.1 X Track quality 100.0 % Test CRC 6B4A86BB Copy CRC 6B4A86BB Accurately ripped (confidence 3) [195E1457] Copy OK

Track 3

Filename D:\Rips\Benny Green - 2000 - Naturally (FLAC)\03 - Pittsburgh Brethen.wav

Pre-gap length 0:00:01.42

Peak level 100.0 % Extraction speed 3.4 X Track quality 100.0 % Test CRC BB05CFF6 Copy CRC BB05CFF6 Accurately ripped (confidence 3) [CCEBA443] Copy OK

Track 4

Filename D:\Rips\Benny Green - 2000 - Naturally (FLAC)\04 - Captain Hook.wav

Pre-gap length 0:00:01.80

Peak level 100.0 % Extraction speed 3.9 X Track quality 100.0 % Test CRC 5F2B1F19 Copy CRC 5F2B1F19 Accurately ripped (confidence 3) [49E7885B] Copy OK

Track 5

Filename D:\Rips\Benny Green - 2000 - Naturally (FLAC)\05 - Grooveyard.wav

Pre-gap length 0:00:01.49

Peak level 100.0 % Extraction speed 4.1 X Track quality 100.0 % Test CRC 9830D6BB Copy CRC 9830D6BB Accurately ripped (confidence 3) [7DA14D4E] Copy OK

Track 6

Filename D:\Rips\Benny Green - 2000 - Naturally (FLAC)\06 - Learning'the Blues.wav

Peak level 90.2 % Extraction speed 4.2 X Track quality 100.0 % Test CRC 6D17C53C Copy CRC 6D17C53C Accurately ripped (confidence 3) [8211992C] Copy OK

Track 7

Filename D:\Rips\Benny Green - 2000 - Naturally (FLAC)\07 - Russelin'.wav

Pre-gap length 0:00:01.42

Peak level 97.8 % Extraction speed 4.5 X Track quality 100.0 % Test CRC 65EF3545 Copy CRC 65EF3545 Accurately ripped (confidence 3) [0879690D] Copy OK

Track 8

Filename D:\Rips\Benny Green - 2000 - Naturally (FLAC)\08 - Beg Your Parlan.wav

Pre-gap length 0:00:01.02

Peak level 100.0 % Extraction speed 4.8 X Track quality 100.0 % Test CRC E13B8C0F Copy CRC E13B8C0F Accurately ripped (confidence 3) [87065A4F] Copy OK

Track 9

Filename D:\Rips\Benny Green - 2000 - Naturally (FLAC)\09 - Lester Left Town.wav

Pre-gap length 0:00:01.33

Peak level 97.8 % Extraction speed 4.9 X Track quality 100.0 % Test CRC 2356D995 Copy CRC 2356D995 Accurately ripped (confidence 3) [5E6A7273] Copy OK

All tracks accurately ripped

No errors occurred

End of status report

==== Log checksum 8823B86EE09E2597C8BE4B4535ADEEA705AD559364B01EC5A3BE77D343A76B30 ====
 
REM GENRE "Jazz Piano"REM DATE 2000REM DISCID 710C5409REM COMMENT "ExactAudioCopy v1.0b1"FILE "01. Love You Madly.flac" WAVE TRACK 01 AUDIO INDEX 01 00:00:00FILE "02. Naturally.flac" WAVE TRACK 02 AUDIO INDEX 01 00:00:00 TRACK 03 AUDIO INDEX 00 06:38:08FILE "03. Pittsburgh Brethren.flac" WAVE INDEX 01 00:00:00 TRACK 04 AUDIO INDEX 00 05:41:73FILE "04. Captain Hook.flac" WAVE INDEX 01 00:00:00 TRACK 05 AUDIO INDEX 00 07:19:70FILE "05. Grooveyard.flac" WAVE INDEX 01 00:00:00FILE "06. Learnin' The Blues.flac" WAVE TRACK 06 AUDIO INDEX 01 00:00:00 TRACK 07 AUDIO INDEX 00 04:09:00FILE "07. Russelin'.flac" WAVE INDEX 01 00:00:00 TRACK 08 AUDIO INDEX 00 05:47:03FILE "08. Beg Your Parlan.flac" WAVE INDEX 01 00:00:00 TRACK 09 AUDIO INDEX 00 06:46:05FILE "09. Lester Left Town.flac" WAVE INDEX 01 00:00:00


Трекер:  [ 27-Янв-2012 16:13 ]

  

Скачать .torrent

Размер .torrent файла 17 KB


Размер: 199 MB
Хэш (hash) релиза: 1b85fa575fd93a89f383e66682d751170c5f2c0f

Еще никто не оставлял запись к записи скачать торрент Benny Green — Naturally — 2000, FLAC . Будь первым!

!Обратная связь