Скачать через торрент музыку Oscar Peterson — Motions & Emotions — 2005, FLAC бесплатно без регистрации torrent

Если у вас наблюдаются проблемы со скриншотами, переходом по ссылками, скачиванием торрентов - проблемы в блокировщике рекламы AdBlock. #хорошегоДня!


Статистика раздачи
Размер:  233 MB   |    Зарегистрирован:  5 лет 8 месяцев   |    .torrent скачан:  38 раз   |   
Раздают:  1  
   
Загрузка...
 
Автор Сообщение

Umakiro

avatar Umakiro


Oscar Peterson – Motions & Emotions

Жанр: Bop
Год издания диска: 2005
Издатель (лейбл): MPS
Номер по каталогу: 0602498270134
Аудиокодек: FLAC (*.flac)
Тип рипа: tracks+.cue
Битрейт аудио: lossless
Продолжительность: 36:56
Источник (релизер): mishka1981
Наличие сканов в содержимом раздачи: да

Треклист:
01. Sally's Tomato (3:12)
02. Sunny (3:33)
03. By The Time I Get To Phoenix (4:26)
04. Wandering (2:58)
05. This Guy's In Love With You (3:50)
06. Wave (6:06)
07. Dreamsville (3:01)
08. Yesterday (3:59)
09. Eleanor Rigby (3:09)
10. Ode To Billy Joe (2:40)

Personnel:
Oscar Peterson - p
Bucky Pizzarelli - g
Sam Jones - b
Bobby Durham - d
Orchestra arranged and conducted by Claus Ogerman
 
 
Exact Audio Copy V1.0 beta 1 from 15. November 2010

EAC extraction logfile from 18. December 2011, 13:59

Oscar Peterson / Motions & Emotions

Used drive : TSSTcorpCDDVDW TS-L633A Adapter: 3 ID: 0

Read mode : SecureUtilize accurate stream : YesDefeat audio cache : YesMake use of C2 pointers : No

Read offset correction : 6Overread into Lead-In and Lead-Out : NoFill up missing offset samples with silence : YesDelete leading and trailing silent blocks : NoNull samples used in CRC calculations : YesUsed interface : Installed external ASPI interfaceGap handling : Appended to previous track

Used output format : User Defined EncoderSelected bitrate : 896 kBit/sQuality : HighAdd ID3 tag : NoCommand line compressor : C:\Program Files\Exact Audio Copy\FLAC\FLAC.EXEAdditional command line options : -8 -V -T "ARTIST=%a" -T "TITLE=%t" -T "ALBUM=%g" -T "DATE=%y" -T "TRACKNUMBER=%n" -T "TOTALTRACKS=%x" -T "GENRE=%m" -T "ALBUMARTIST=%v" -T "ALBUM ARTIST=%v" -T "COMMENT=EAC Secure Mode, Test & Copy, AccurateRip, FLAC -8" %s

TOC of the extracted CD

Track | Start | Length | Start sector | End sector --------------------------------------------------------- 1 | 0:00.00 | 3:11.73 | 0 | 14397 2 | 3:11.73 | 3:33.09 | 14398 | 30381 3 | 6:45.07 | 4:26.02 | 30382 | 50333 4 | 11:11.09 | 2:58.27 | 50334 | 63710 5 | 14:09.36 | 3:50.26 | 63711 | 80986 6 | 17:59.62 | 6:05.65 | 80987 | 108426 7 | 24:05.52 | 3:01.15 | 108427 | 122016 8 | 27:06.67 | 3:59.28 | 122017 | 139969 9 | 31:06.20 | 3:09.34 | 139970 | 154178 10 | 34:15.54 | 2:39.73 | 154179 | 166176

Track 1

Filename C:\MY RIPS\01 - Sally's Tomato.wav

Pre-gap length 0:00:02.00

Peak level 97.8 % Extraction speed 1.0 X Track quality 100.0 % Test CRC 1B3DC6DD Copy CRC 1B3DC6DD Accurately ripped (confidence 3) [38E05402] Copy OK

Track 2

Filename C:\MY RIPS\02 - Sunny.wav

Pre-gap length 0:00:03.67

Peak level 98.8 % Extraction speed 1.1 X Track quality 100.0 % Test CRC 5B8121B8 Copy CRC 5B8121B8 Accurately ripped (confidence 3) [9FD94939] Copy OK

Track 3

Filename C:\MY RIPS\03 - By The Time I Get To Phoenix.wav

Pre-gap length 0:00:03.67

Peak level 98.8 % Extraction speed 1.3 X Track quality 100.0 % Test CRC 5F29C896 Copy CRC 5F29C896 Accurately ripped (confidence 3) [269B8E87] Copy OK

Track 4

Filename C:\MY RIPS\04 - Wandering.wav

Pre-gap length 0:00:03.67

Peak level 92.5 % Extraction speed 1.3 X Track quality 100.0 % Test CRC 83467A7F Copy CRC 83467A7F Accurately ripped (confidence 3) [4A321C35] Copy OK

Track 5

Filename C:\MY RIPS\05 - This Guy's In Love With You.wav

Pre-gap length 0:00:03.67

Peak level 98.8 % Extraction speed 1.4 X Track quality 100.0 % Test CRC CA442714 Copy CRC CA442714 Accurately ripped (confidence 3) [FEF4FB0D] Copy OK

Track 6

Filename C:\MY RIPS\06 - Wave.wav

Pre-gap length 0:00:03.67

Peak level 98.8 % Extraction speed 1.6 X Track quality 100.0 % Test CRC F44DD806 Copy CRC F44DD806 Accurately ripped (confidence 3) [610E2E5E] Copy OK

Track 7

Filename C:\MY RIPS\07 - Dreamsville.wav

Pre-gap length 0:00:03.67

Peak level 98.8 % Extraction speed 1.6 X Track quality 100.0 % Test CRC 7D3ED2AA Copy CRC 7D3ED2AA Accurately ripped (confidence 3) [3F96A40F] Copy OK

Track 8

Filename C:\MY RIPS\08 - Yesterday.wav

Pre-gap length 0:00:03.67

Peak level 98.8 % Extraction speed 1.7 X Track quality 100.0 % Test CRC B4164A55 Copy CRC B4164A55 Accurately ripped (confidence 3) [BDD8D3F7] Copy OK

Track 9

Filename C:\MY RIPS\09 - Eleanor Rigby.wav

Pre-gap length 0:00:03.67

Peak level 98.8 % Extraction speed 1.7 X Track quality 100.0 % Test CRC E7656121 Copy CRC E7656121 Accurately ripped (confidence 3) [75ADFE6E] Copy OK

Track 10

Filename C:\MY RIPS\10 - Ode To Billy Joe.wav

Pre-gap length 0:00:03.67

Peak level 98.8 % Extraction speed 1.7 X Track quality 100.0 % Test CRC E8A07BFB Copy CRC E8A07BFB Accurately ripped (confidence 3) [7173E494] Copy OK

All tracks accurately ripped

No errors occurred

End of status report

==== Log checksum F28385F54085FD6C0B03FF4C76073F0CC5F6D80317F9D314990E4AFD2D549EB7 ====
 
REM GENRE JazzREM DATE 1970REM DISCID 8808A70AREM COMMENT "ExactAudioCopy v1.0b1"PERFORMER "Oscar Peterson"TITLE "Motions & Emotions"FILE "01 - Sally's Tomato.wav" WAVE TRACK 01 AUDIO TITLE "Sally's Tomato" PERFORMER "Oscar Peterson" INDEX 01 00:00:00 TRACK 02 AUDIO TITLE "Sunny" PERFORMER "Oscar Peterson" INDEX 00 03:08:06FILE "02 - Sunny.wav" WAVE INDEX 01 00:00:00 TRACK 03 AUDIO TITLE "By The Time I Get To Phoenix" PERFORMER "Oscar Peterson" INDEX 00 03:29:17FILE "03 - By The Time I Get To Phoenix.wav" WAVE INDEX 01 00:00:00 TRACK 04 AUDIO TITLE "Wandering" PERFORMER "Oscar Peterson" INDEX 00 04:22:10FILE "04 - Wandering.wav" WAVE INDEX 01 00:00:00 TRACK 05 AUDIO TITLE "This Guy's In Love With You" PERFORMER "Oscar Peterson" INDEX 00 02:54:35FILE "05 - This Guy's In Love With You.wav" WAVE INDEX 01 00:00:00 TRACK 06 AUDIO TITLE "Wave" PERFORMER "Oscar Peterson" INDEX 00 03:46:34FILE "06 - Wave.wav" WAVE INDEX 01 00:00:00 TRACK 07 AUDIO TITLE "Dreamsville" PERFORMER "Oscar Peterson" INDEX 00 06:01:73FILE "07 - Dreamsville.wav" WAVE INDEX 01 00:00:00 TRACK 08 AUDIO TITLE "Yesterday" PERFORMER "Oscar Peterson" INDEX 00 02:57:23FILE "08 - Yesterday.wav" WAVE INDEX 01 00:00:00 TRACK 09 AUDIO TITLE "Eleanor Rigby" PERFORMER "Oscar Peterson" INDEX 00 03:55:36FILE "09 - Eleanor Rigby.wav" WAVE INDEX 01 00:00:00 TRACK 10 AUDIO TITLE "Ode To Billy Joe" PERFORMER "Oscar Peterson" INDEX 00 03:05:42FILE "10 - Ode To Billy Joe.wav" WAVE INDEX 01 00:00:00


Трекер:  [ 27-Янв-2012 16:13 ]

  

Скачать .torrent

Размер .torrent файла 20 KB


Размер: 233 MB
Хэш (hash) релиза: 5cad749dca13fc0b0aae2802307646e31921356b

Еще никто не оставлял запись к записи скачать торрент Oscar Peterson — Motions & Emotions — 2005, FLAC . Будь первым!

!Обратная связь