Скачать через торрент музыку The New Gary Burton Quartet - Common Ground - 2011 бесплатно без регистрации torrent

Если у вас наблюдаются проблемы со скриншотами, переходом по ссылками, скачиванием торрентов - проблемы в блокировщике рекламы AdBlock. #хорошегоДня!


Статистика раздачи
Размер:  482 MB   |    Зарегистрирован:  5 лет 8 месяцев   |    .torrent скачан:  42 раза   |   
Раздают:  1  
   
Загрузка...
 
Автор Сообщение

Umakiro

avatar Umakiro


The New Gary Burton Quartet - Common Ground

Жанр: Contemporary Jazz, Post-Bop
Год издания диска: 2011
Издатель (лейбл): Mack Avenue Records
Номер по каталогу: MAC1061
Аудиокодек: FLAC (*.flac)
Тип рипа: tracks+.cue
Битрейт аудио: lossless
Продолжительность: 1:06:02
Источник: Собственные рипы
Наличие сканов в содержимом раздачи: да

Треклист:

01. Late Night Sunrise - 6:39
02. Never The Same Way - 7:04
03. Common Ground - 7:00
04. Was It So Long Ago? - 6:16
05. Etude - 5:51
06. Last Snow - 7:05
07. Did You Get It? - 5:18
08. My Funny Valentine - 7:17
09. Banksy - 6:13
10. In Your Quiet Place - 7:21
.
Gary Burton - Vibraphone
Julian Lage - Guitar
Scott Colley - Bass
Antonio Sanchéz - Drums
 
Exact Audio Copy V1.0 beta 2 from 29. April 2011

EAC extraction logfile from 15. July 2011, 19:59

The New Gary Burton Quartet / Common Ground

Used drive : HL-DT-STDVD-RAM GSA-H55N Adapter: 0 ID: 2

Read mode : SecureUtilize accurate stream : YesDefeat audio cache : YesMake use of C2 pointers : No

Read offset correction : 102Overread into Lead-In and Lead-Out : YesFill up missing offset samples with silence : YesDelete leading and trailing silent blocks : NoNull samples used in CRC calculations : YesUsed interface : Installed external ASPI interfaceGap handling : Appended to previous track

Used output format : User Defined EncoderSelected bitrate : 128 kBit/sQuality : HighAdd ID3 tag : NoCommand line compressor : G:\Program Files\Exact Audio Copy\Encoder\flac.exeAdditional command line options : -V -8 -T "Genre=%genre%" -T "Artist=%artist%" -T "Title=%title%" -T "Album=%albumtitle%" -T "Date=%year%" -T "Tracknumber=%tracknr%" -T "Comment=EAC1.0b2 FLAC -8" %source%

TOC of the extracted CD

Track | Start | Length | Start sector | End sector --------------------------------------------------------- 1 | 0:00.00 | 6:38.53 | 0 | 29902 2 | 6:38.53 | 7:03.44 | 29903 | 61671 3 | 13:42.22 | 6:59.71 | 61672 | 93167 4 | 20:42.18 | 6:16.06 | 93168 | 121373 5 | 26:58.24 | 5:50.52 | 121374 | 147675 6 | 32:49.01 | 7:04.71 | 147676 | 179546 7 | 39:53.72 | 5:17.64 | 179547 | 203385 8 | 45:11.61 | 7:16.63 | 203386 | 236148 9 | 52:28.49 | 6:13.04 | 236149 | 264127 10 | 58:41.53 | 7:20.68 | 264128 | 297195

Track 1

Filename F:\WAV\01 - Late Night Sunrise.wav

Pre-gap length 0:00:02.00

Peak level 99.8 % Extraction speed 3.8 X Track quality 99.9 % Test CRC 922B5C4B Copy CRC 922B5C4B Track not present in AccurateRip database Copy OK

Track 2

Filename F:\WAV\02 - Never The Same Way.wav

Pre-gap length 0:00:02.50

Peak level 99.8 % Extraction speed 4.7 X Track quality 100.0 % Test CRC 54D1ACB7 Copy CRC 54D1ACB7 Track not present in AccurateRip database Copy OK

Track 3

Filename F:\WAV\03 - Common Ground.wav

Pre-gap length 0:00:01.56

Peak level 99.8 % Extraction speed 4.8 X Track quality 99.9 % Test CRC 651E38A8 Copy CRC 651E38A8 Track not present in AccurateRip database Copy OK

Track 4

Filename F:\WAV\04 - Was It So Long Ago.wav

Pre-gap length 0:00:02.10

Peak level 99.8 % Extraction speed 5.5 X Track quality 100.0 % Test CRC ABA090D7 Copy CRC ABA090D7 Track not present in AccurateRip database Copy OK

Track 5

Filename F:\WAV\05 - Etude.wav

Pre-gap length 0:00:02.11

Peak level 99.8 % Extraction speed 5.9 X Track quality 100.0 % Test CRC 22607162 Copy CRC 22607162 Track not present in AccurateRip database Copy OK

Track 6

Filename F:\WAV\06 - Last Snow.wav

Pre-gap length 0:00:02.29

Peak level 99.8 % Extraction speed 5.9 X Track quality 99.9 % Test CRC AD00B8A7 Copy CRC AD00B8A7 Track not present in AccurateRip database Copy OK

Track 7

Filename F:\WAV\07 - Did You Get It.wav

Pre-gap length 0:00:01.06

Peak level 99.8 % Extraction speed 6.4 X Track quality 100.0 % Test CRC CCAA0902 Copy CRC CCAA0902 Track not present in AccurateRip database Copy OK

Track 8

Filename F:\WAV\08 - My Funny Valentine.wav

Pre-gap length 0:00:02.06

Peak level 99.8 % Extraction speed 6.9 X Track quality 100.0 % Test CRC FD11E377 Copy CRC FD11E377 Track not present in AccurateRip database Copy OK

Track 9

Filename F:\WAV\09 - Banksy.wav

Pre-gap length 0:00:02.52

Peak level 99.8 % Extraction speed 7.0 X Track quality 100.0 % Test CRC C7DAB8AC Copy CRC C7DAB8AC Track not present in AccurateRip database Copy OK

Track 10

Filename F:\WAV\10 - In Your Quiet Place.wav

Pre-gap length 0:00:02.22

Peak level 99.8 % Extraction speed 5.9 X Track quality 99.9 % Test CRC 68CDC4D0 Copy CRC 68CDC4D0 Track not present in AccurateRip database Copy OK

None of the tracks are present in the AccurateRip database

No errors occurred

End of status report

==== Log checksum C10E957CF82FE006E8D0B28F0808198E3EBBB17F72FDB30143566C3EF7ADE0B9 ====
 
REM GENRE JazzREM DATE 2011REM DISCID 700F7A0AREM COMMENT "ExactAudioCopy v1.0b2"PERFORMER "The New Gary Burton Quartet"TITLE "Common Ground"FILE "01 - Late Night Sunrise.wav" WAVE TRACK 01 AUDIO TITLE "Late Night Sunrise" PERFORMER "The New Gary Burton Quartet" ISRC USMAR1106101 INDEX 01 00:00:00 TRACK 02 AUDIO TITLE "Never The Same Way" PERFORMER "The New Gary Burton Quartet" ISRC USMAR1106102 INDEX 00 06:36:03FILE "02 - Never The Same Way.wav" WAVE INDEX 01 00:00:00 TRACK 03 AUDIO TITLE "Common Ground" PERFORMER "The New Gary Burton Quartet" ISRC USMAR1106103 INDEX 00 07:01:63FILE "03 - Common Ground.wav" WAVE INDEX 01 00:00:00 TRACK 04 AUDIO TITLE "Was It So Long Ago?" PERFORMER "The New Gary Burton Quartet" ISRC USMAR1106104 INDEX 00 06:57:61FILE "04 - Was It So Long Ago.wav" WAVE INDEX 01 00:00:00 TRACK 05 AUDIO TITLE "Etude" PERFORMER "The New Gary Burton Quartet" ISRC USMAR1106105 INDEX 00 06:13:70FILE "05 - Etude.wav" WAVE INDEX 01 00:00:00 TRACK 06 AUDIO TITLE "Last Snow" PERFORMER "The New Gary Burton Quartet" ISRC USMAR1106106 INDEX 00 05:48:23FILE "06 - Last Snow.wav" WAVE INDEX 01 00:00:00 TRACK 07 AUDIO TITLE "Did You Get It?" PERFORMER "The New Gary Burton Quartet" ISRC USMAR1106107 INDEX 00 07:03:65FILE "07 - Did You Get It.wav" WAVE INDEX 01 00:00:00 TRACK 08 AUDIO TITLE "My Funny Valentine" PERFORMER "The New Gary Burton Quartet" ISRC USMAR1106108 INDEX 00 05:15:58FILE "08 - My Funny Valentine.wav" WAVE INDEX 01 00:00:00 TRACK 09 AUDIO TITLE "Banksy" PERFORMER "The New Gary Burton Quartet" ISRC USMAR1106109 INDEX 00 07:14:11FILE "09 - Banksy.wav" WAVE INDEX 01 00:00:00 TRACK 10 AUDIO TITLE "In Your Quiet Place" PERFORMER "The New Gary Burton Quartet" ISRC USMAR1106110 INDEX 00 06:10:57FILE "10 - In Your Quiet Place.wav" WAVE INDEX 01 00:00:00


Трекер:  [ 27-Янв-2012 16:10 ]

  

Скачать .torrent

Размер .torrent файла 20 KB


Размер: 482 MB
Хэш (hash) релиза: f213acb2dce4f410dc3d9ab249ae4cc471afdcd0

Еще никто не оставлял запись к записи скачать торрент The New Gary Burton Quartet - Common Ground - 2011 . Будь первым!

!Обратная связь