Скачать через торрент музыку Herbie Mann — Live At Newport бесплатно без регистрации torrent

Если у вас наблюдаются проблемы со скриншотами, переходом по ссылками, скачиванием торрентов - проблемы в блокировщике рекламы AdBlock. #хорошегоДня!


Статистика раздачи
Размер:  285 MB   |    Зарегистрирован:  5 лет 8 месяцев   |    .torrent скачан:  31 раз   |   
Раздают:  1  
   
Загрузка...
 
Автор Сообщение

Umakiro

avatar Umakiro


Herbie Mann – Live At Newport (1963)

Жанр: Latin Jazz
Год издания диска: 2001
Издатель (лейбл): Wounded Bird Records
Номер по каталогу: WOU 1413
Аудиокодек: FLAC (*.flac)
Тип рипа: tracks+.cue
Битрейт аудио: lossless
Продолжительность: 40:24
Источник (релизер): вата
Наличие сканов в содержимом раздачи: да

Треклист:
01. Soft Winds (7:40)
02. Desafinado (7:39)
03. Samba De Orfeu (6:10)
04. Don't You Know (10:49)
05. Garota De Ipanema (8:05)

Personnel:
Herbie Mann - fl
Dave Pike - vib
Don Friedman - p
Attila Zoller - g
Ben Tucker - b
Bob Thomas - d
Willie Bobo & Carlos "Patato" Valdes - perc

Rec.: Newport Jazz Festival, Newport, RI, July 7, 1963.
 
 
Exact Audio Copy V1.0 beta 3 from 29. August 2011

EAC extraction logfile from 26. October 2011, 23:58

Herbie Mann / Live At Newport

Used drive : PLEXTOR DVDR PX-880SA Adapter: 1 ID: 1

Read mode : SecureUtilize accurate stream : YesDefeat audio cache : YesMake use of C2 pointers : No

Read offset correction : 6Overread into Lead-In and Lead-Out : NoFill up missing offset samples with silence : YesDelete leading and trailing silent blocks : NoNull samples used in CRC calculations : YesUsed interface : Native Win32 interface for Win NT & 2000Gap handling : Appended to previous track

Used output format : User Defined EncoderSelected bitrate : 1024 kBit/sQuality : HighAdd ID3 tag : NoCommand line compressor : C:\Program Files (x86)\FLAC\flac.exeAdditional command line options : -8 -V -T "ARTIST=%artist%" -T "TITLE=%title%" -T "ALBUM=%albumtitle%" -T "DATE=%year%" -T "TRACKNUMBER=%tracknr%" -T "TOTALTRACKS=%numtracks%" -T "GENRE=%genre%" -T "ALBUM ARTIST=%albumartist%" -T "ALBUMARTIST=%albumartist%" -T "COMPOSER=%albumcomposer%" -T "PERFORMER=%albuminterpret%" %haslyrics%-T "LYRICS=%lyrics%"%haslyrics% -T "COMMENT=EAC V1.0 beta 3, Secure Mode, Test & Copy, AccurateRip, FLAC -8" %source%

TOC of the extracted CD

Track | Start | Length | Start sector | End sector --------------------------------------------------------- 1 | 0:00.00 | 7:40.20 | 0 | 34519 2 | 7:40.20 | 7:39.24 | 34520 | 68968 3 | 15:19.44 | 6:09.49 | 68969 | 96692 4 | 21:29.18 | 10:49.26 | 96693 | 145393 5 | 32:18.44 | 8:05.22 | 145394 | 181790

Track 1

Filename N:\01 - Soft Winds.wav

Pre-gap length 0:00:02.00

Peak level 87.6 % Extraction speed 3.9 X Track quality 100.0 % Test CRC 788FCB00 Copy CRC 788FCB00 Accurately ripped (confidence 1) [496258CE] (AR v1) Copy OK

Track 2

Filename N:\02 - Desafinado.wav

Peak level 88.5 % Extraction speed 4.7 X Track quality 100.0 % Test CRC B9FFBDF2 Copy CRC B9FFBDF2 Accurately ripped (confidence 1) [CA2082C4] (AR v1) Copy OK

Track 3

Filename N:\03 - Samba De Orfeu.wav

Peak level 94.2 % Extraction speed 5.1 X Track quality 100.0 % Test CRC 2DD83213 Copy CRC 2DD83213 Accurately ripped (confidence 1) [65B0E6D7] (AR v1) Copy OK

Track 4

Filename N:\04 - Don't You Know.wav

Peak level 98.3 % Extraction speed 5.7 X Track quality 100.0 % Test CRC 8CE57EB6 Copy CRC 8CE57EB6 Accurately ripped (confidence 1) [028C3319] (AR v1) Copy OK

Track 5

Filename N:\05 - Garota De Ipanema.wav

Peak level 80.9 % Extraction speed 6.3 X Track quality 100.0 % Test CRC 4E14BC1A Copy CRC 4E14BC1A Accurately ripped (confidence 1) [2D411445] (AR v1) Copy OK

All tracks accurately ripped

No errors occurred

End of status report

---- CUETools DB Plugin V2.1.3

[CTDB TOCID: nRcc9WI62b6iRI4ak5Hc7vrGasI-] disk not present in database, Submit result: nRcc9WI62b6iRI4ak5Hc7vrGasI- has been uploaded

==== Log checksum 6BB12DB14324EF85623A9D87000C53894C1F120582D9BBAD848B4C39F00345EA ====

ЛОГ проверен по чексумме
 
REM GENRE JazzREM DATE 1963REM DISCID 35097705REM COMMENT "ExactAudioCopy v1.0b3"PERFORMER "Herbie Mann"TITLE "Live At Newport"FILE "01 - Soft Winds.wav" WAVE TRACK 01 AUDIO TITLE "Soft Winds" PERFORMER "Herbie Mann" ISRC USAT20110741 INDEX 01 00:00:00FILE "02 - Desafinado.wav" WAVE TRACK 02 AUDIO TITLE "Desafinado" PERFORMER "Herbie Mann" ISRC USAT20110742 INDEX 01 00:00:00FILE "03 - Samba De Orfeu.wav" WAVE TRACK 03 AUDIO TITLE "Samba De Orfeu" PERFORMER "Herbie Mann" ISRC USAT20110743 INDEX 01 00:00:00FILE "04 - Don't You Know.wav" WAVE TRACK 04 AUDIO TITLE "Don't You Know" PERFORMER "Herbie Mann" ISRC USAT20110744 INDEX 01 00:00:00FILE "05 - Garota De Ipanema.wav" WAVE TRACK 05 AUDIO TITLE "Garota De Ipanema" PERFORMER "Herbie Mann" ISRC USAT20110744 INDEX 01 00:00:00


Трекер:  [ 27-Янв-2012 16:07 ]

  

Скачать .torrent

Размер .torrent файла 12 KB


Размер: 285 MB
Хэш (hash) релиза: ddd1accbe2f09eac973f0c227d9f560239f93157

Еще никто не оставлял запись к записи скачать торрент Herbie Mann — Live At Newport . Будь первым!

!Обратная связь