Скачать через торрент музыку Cab Calloway — The Cab Calloway Story — 1989, FLAC бесплатно без регистрации torrent

Если у вас наблюдаются проблемы со скриншотами, переходом по ссылками, скачиванием торрентов - проблемы в блокировщике рекламы AdBlock. #хорошегоДня!


Статистика раздачи
Размер:  315 MB   |    Зарегистрирован:  5 лет 8 месяцев   |    .torrent скачан:  44 раза   |   
Раздают:  1  
   
Загрузка...
 
Автор Сообщение

Umakiro

avatar Umakiro


Cab Calloway – The Cab Calloway Story

Жанр: Big Band
Год издания диска: 1989
Издатель (лейбл): Deja Vu
Номер по каталогу: DVRECD 22
Аудиокодек: FLAC (*.flac)
Тип рипа: tracks+.cue
Битрейт аудио: lossless
Продолжительность: 76:22
Риппер: oan
Наличие сканов в содержимом раздачи: да

Треклист:
01. Nagasaki (2:56)
02. Hoy Hoy (2:49)
03. Jumpin' Jive (2:48)
04. Give Baby Give (2:36)
05. I Want To Rock (2:49)
06. Minnie The Moocher (3:17)
07. Honey Dripper (2:56)
08. Hi De Ho Man (3:02)
09. Jungle King (3:17)
10. The Calloway Boogie (3:05)
11. Two Blocks Down Town To The Left (3:15)
12. A Chicken Ain't Nothing But A Bird (2:55)
13. I Can't Give You Anything But Love (1:59)
14. Stormy Weather (3:50)
15. You Got It (3:02)
16. Everybody Eats When They Come To My House (2:37)
17. Afternoon Moon (4:00)
18. This Is Always (3:56)
19. Duck Trot (2:01)
20. That Old Black Magic (3:19)
21. How Big Can You Get (3:53)
22. Hey Now Hey Now (2:48)
23. Birth Of The Blues (2:45)
24. We The Cats Shall Help You (3:19)
25. Foo A Little Ballyhoo (3:07)
 
 
Exact Audio Copy V1.0 beta 3 from 29. August 2011

EAC extraction logfile from 11. January 2012, 9:58

Cab Calloway / The Cab Calloway Story

Used drive : HL-DT-STBD-RE GGW-H20L Adapter: 0 ID: 2

Read mode : SecureUtilize accurate stream : YesDefeat audio cache : YesMake use of C2 pointers : No

Read offset correction : 667Overread into Lead-In and Lead-Out : NoFill up missing offset samples with silence : YesDelete leading and trailing silent blocks : NoNull samples used in CRC calculations : YesUsed interface : Native Win32 interface for Win NT & 2000Gap handling : Appended to previous track

Used output format : User Defined EncoderSelected bitrate : 1024 kBit/sQuality : HighAdd ID3 tag : NoCommand line compressor : C:\Program Files\Exact Audio Copy\Flac\flac.exeAdditional command line options : -8 -V -T "ARTIST=%artist%" -T "TITLE=%title%" -T "ALBUM=%albumtitle%" -T "DATE=%year%" -T "TRACKNUMBER=%tracknr%" -T "GENRE=%genre%" -T "PERFORMER=%albuminterpret%" -T "COMPOSER=%composer%" %haslyrics%--tag-from-file=LYRICS="%lyricsfile%"%haslyrics% -T "ALBUMARTIST=%albumartist%" -T "ALBUM ARTIST=%albumartist%" -T "DISCNUMBER=%cdnumber%" -T "TOTALDISCS=%totalcds%" -T "TOTALTRACKS=%numtracks%" -T "COMMENT=EAC V1.0 beta 3, Secure Mode, Test & Copy, AccurateRip, FLAC - 8 - oan" %source% -o %dest%

TOC of the extracted CD

Track | Start | Length | Start sector | End sector --------------------------------------------------------- 1 | 0:00.33 | 2:56.00 | 33 | 13232 2 | 2:56.33 | 2:49.00 | 13233 | 25907 3 | 5:45.33 | 2:48.00 | 25908 | 38507 4 | 8:33.33 | 2:36.00 | 38508 | 50207 5 | 11:09.33 | 2:48.50 | 50208 | 62857 6 | 13:58.08 | 3:17.02 | 62858 | 77634 7 | 17:15.10 | 2:56.23 | 77635 | 90857 8 | 20:11.33 | 3:01.57 | 90858 | 104489 9 | 23:13.15 | 3:17.18 | 104490 | 119282 10 | 26:30.33 | 3:05.10 | 119283 | 133167 11 | 29:35.43 | 3:14.50 | 133168 | 147767 12 | 32:50.18 | 2:54.65 | 147768 | 160882 13 | 35:45.08 | 1:59.25 | 160883 | 169832 14 | 37:44.33 | 3:50.25 | 169833 | 187107 15 | 41:34.58 | 3:02.25 | 187108 | 200782 16 | 44:37.08 | 2:37.25 | 200783 | 212582 17 | 47:14.33 | 4:00.00 | 212583 | 230582 18 | 51:14.33 | 3:56.00 | 230583 | 248282 19 | 55:10.33 | 2:01.27 | 248283 | 257384 20 | 57:11.60 | 3:18.48 | 257385 | 272282 21 | 60:30.33 | 3:53.00 | 272283 | 289757 22 | 64:23.33 | 2:48.00 | 289758 | 302357 23 | 67:11.33 | 2:44.52 | 302358 | 314709 24 | 69:56.10 | 3:19.23 | 314710 | 329657 25 | 73:15.33 | 3:07.00 | 329658 | 343682

Track 1

Filename C:\oneanight\01 - Nagasaki.wav

Pre-gap length 0:00:02.44

Peak level 55.1 % Extraction speed 4.2 X Track quality 100.0 % Test CRC 3A190531 Copy CRC 3A190531 Cannot be verified as accurate (confidence 4) [DE8B229A], AccurateRip returned [6794E608] (AR v2) Copy OK

Track 2

Filename C:\oneanight\02 - Hoy Hoy.wav

Peak level 86.2 % Extraction speed 3.4 X Track quality 99.9 % Test CRC C1E36677 Copy CRC C1E36677 Cannot be verified as accurate (confidence 4) [56E93AF4], AccurateRip returned [682ACC8F] (AR v2) Copy OK

Track 3

Filename C:\oneanight\03 - Jumpin' Jive.wav

Peak level 57.1 % Extraction speed 3.6 X Track quality 99.9 % Test CRC ADD49F54 Copy CRC ADD49F54 Cannot be verified as accurate (confidence 4) [37EC5824], AccurateRip returned [B79EB16F] (AR v2) Copy OK

Track 4

Filename C:\oneanight\04 - Give Baby Give.wav

Peak level 52.6 % Extraction speed 3.6 X Track quality 99.9 % Test CRC 72628215 Copy CRC 72628215 Cannot be verified as accurate (confidence 4) [77AA76D9], AccurateRip returned [21D3B869] (AR v2) Copy OK

Track 5

Filename C:\oneanight\05 - I Want To Rock.wav

Peak level 42.9 % Extraction speed 3.9 X Track quality 99.9 % Test CRC 4A5C3A53 Copy CRC 4A5C3A53 Cannot be verified as accurate (confidence 4) [D09F1CEE], AccurateRip returned [FF87D768] (AR v2) Copy OK

Track 6

Filename C:\oneanight\06 - Minnie The Moocher.wav

Peak level 69.7 % Extraction speed 5.5 X Track quality 100.0 % Test CRC 027CEE8B Copy CRC 027CEE8B Cannot be verified as accurate (confidence 4) [4C213E77], AccurateRip returned [9DFBC5FB] (AR v2) Copy OK

Track 7

Filename C:\oneanight\07 - Honey Dripper.wav

Peak level 61.2 % Extraction speed 4.3 X Track quality 99.9 % Test CRC 2A2CD065 Copy CRC 2A2CD065 Cannot be verified as accurate (confidence 4) [D4E66813], AccurateRip returned [E0C5DC40] (AR v2) Copy OK

Track 8

Filename C:\oneanight\08 - Hi De Ho Man.wav

Peak level 50.3 % Extraction speed 5.8 X Track quality 100.0 % Test CRC 862EE4AE Copy CRC 862EE4AE Cannot be verified as accurate (confidence 4) [4DA737BE], AccurateRip returned [65D68D7E] (AR v2) Copy OK

Track 9

Filename C:\oneanight\09 - Jungle King.wav

Peak level 45.6 % Extraction speed 6.1 X Track quality 100.0 % Test CRC 83A5CA0B Copy CRC 83A5CA0B Cannot be verified as accurate (confidence 4) [FC26F093], AccurateRip returned [D2A3C510] (AR v2) Copy OK

Track 10

Filename C:\oneanight\10 - The Calloway Boogie.wav

Peak level 56.4 % Extraction speed 5.8 X Track quality 100.0 % Test CRC 3015C218 Copy CRC 3015C218 Cannot be verified as accurate (confidence 4) [C5962E73], AccurateRip returned [AC642BBC] (AR v2) Copy OK

Track 11

Filename C:\oneanight\11 - Two Blocks Down Town To The Left.wav

Peak level 58.3 % Extraction speed 6.3 X Track quality 100.0 % Test CRC F498E014 Copy CRC F498E014 Cannot be verified as accurate (confidence 4) [56C873C0], AccurateRip returned [644670EA] (AR v2) Copy OK

Track 12

Filename C:\oneanight\12 - A Chicken Ain't Nothing But A Bird.wav

Peak level 50.8 % Extraction speed 6.4 X Track quality 100.0 % Test CRC D39C60DC Copy CRC D39C60DC Cannot be verified as accurate (confidence 4) [7EB69FDD], AccurateRip returned [6738AAB4] (AR v2) Copy OK

Track 13

Filename C:\oneanight\13 - I Can't Give You Anything But Love.wav

Peak level 94.1 % Extraction speed 6.1 X Track quality 100.0 % Test CRC DDFA22CE Copy CRC DDFA22CE Cannot be verified as accurate (confidence 4) [958D3E1E], AccurateRip returned [DDECE50E] (AR v2) Copy OK

Track 14

Filename C:\oneanight\14 - Stormy Weather.wav

Peak level 47.9 % Extraction speed 7.0 X Track quality 100.0 % Test CRC 42D2E21D Copy CRC 42D2E21D Cannot be verified as accurate (confidence 4) [DCA9D121], AccurateRip returned [95B66514] (AR v2) Copy OK

Track 15

Filename C:\oneanight\15 - You Got It.wav

Peak level 52.8 % Extraction speed 7.1 X Track quality 100.0 % Test CRC A0DCB19D Copy CRC A0DCB19D Cannot be verified as accurate (confidence 4) [1C8CE7C0], AccurateRip returned [9FA839E0] (AR v2) Copy OK

Track 16

Filename C:\oneanight\16 - Everybody Eats When They Come To My House.wav

Peak level 48.1 % Extraction speed 5.4 X Track quality 99.9 % Test CRC 0A776258 Copy CRC 0A776258 Cannot be verified as accurate (confidence 4) [F82E3F5B], AccurateRip returned [387D65C4] (AR v2) Copy OK

Track 17

Filename C:\oneanight\17 - Afternoon Moon.wav

Peak level 54.5 % Extraction speed 6.4 X Track quality 99.9 % Test CRC 680AC59B Copy CRC 680AC59B Cannot be verified as accurate (confidence 4) [1D77E3FD], AccurateRip returned [F0470622] (AR v2) Copy OK

Track 18

Filename C:\oneanight\18 - This Is Always.wav

Peak level 64.7 % Extraction speed 7.7 X Track quality 100.0 % Test CRC B8DF8324 Copy CRC B8DF8324 Cannot be verified as accurate (confidence 4) [DA7415F1], AccurateRip returned [1CC48F0E] (AR v2) Copy OK

Track 19

Filename C:\oneanight\19 - Duck Trot.wav

Peak level 40.4 % Extraction speed 6.7 X Track quality 100.0 % Test CRC D57D22A4 Copy CRC D57D22A4 Cannot be verified as accurate (confidence 4) [722A857B], AccurateRip returned [81F1B8BA] (AR v2) Copy OK

Track 20

Filename C:\oneanight\20 - That Old Black Magic.wav

Peak level 88.1 % Extraction speed 8.0 X Track quality 100.0 % Test CRC 576837DC Copy CRC 576837DC Cannot be verified as accurate (confidence 4) [28F3FE9F], AccurateRip returned [7E2355AD] (AR v2) Copy OK

Track 21

Filename C:\oneanight\21 - How Big Can You Get.wav

Peak level 65.1 % Extraction speed 8.1 X Track quality 100.0 % Test CRC A6D7962C Copy CRC A6D7962C Cannot be verified as accurate (confidence 4) [D52619E1], AccurateRip returned [5F76915A] (AR v2) Copy OK

Track 22

Filename C:\oneanight\22 - Hey Now Hey Now.wav

Peak level 42.9 % Extraction speed 6.2 X Track quality 99.9 % Test CRC 7A55D2D9 Copy CRC 7A55D2D9 Cannot be verified as accurate (confidence 4) [1E4DEA51], AccurateRip returned [07F8AF19] (AR v2) Copy OK

Track 23

Filename C:\oneanight\23 - Birth Of The Blues.wav

Peak level 42.7 % Extraction speed 6.1 X Track quality 99.9 % Test CRC B24C75A3 Copy CRC B24C75A3 Cannot be verified as accurate (confidence 4) [636ADC0B], AccurateRip returned [A4214453] (AR v2) Copy OK

Track 24

Filename C:\oneanight\24 - We The Cats Shall Help You.wav

Peak level 76.1 % Extraction speed 8.5 X Track quality 100.0 % Test CRC CAA6B595 Copy CRC CAA6B595 Cannot be verified as accurate (confidence 4) [42B3EF5B], AccurateRip returned [7D6E60F8] (AR v2) Copy OK

Track 25

Filename C:\oneanight\25 - Foo A Little Ballyhoo.wav

Peak level 49.4 % Extraction speed 8.5 X Track quality 100.0 % Test CRC 28D78505 Copy CRC 28D78505 Cannot be verified as accurate (confidence 4) [31BDB8A6], AccurateRip returned [7FAE3093] (AR v2) Copy OK

No tracks could be verified as accurateYou may have a different pressing from the one(s) in the database

No errors occurred

End of status report

==== Log checksum 3E2C516BD9E40DB5A7AB371AA55BE843F9D5CBA01D736F1E20BE771B10E8A9DA ====

LOG проверен по чексумме
 
REM GENRE JazzREM DATE 1989REM DISCID 8311E619REM COMMENT "ExactAudioCopy v1.0b3"PERFORMER "Cab Calloway"TITLE "The Cab Calloway Story"FILE "01 - Nagasaki.flac" WAVE TRACK 01 AUDIO TITLE "Nagasaki" PERFORMER "Cab Calloway" PREGAP 00:00:33 INDEX 01 00:00:00FILE "02 - Hoy Hoy.flac" WAVE TRACK 02 AUDIO TITLE "Hoy Hoy" PERFORMER "Cab Calloway" INDEX 01 00:00:00FILE "03 - Jumpin' Jive.flac" WAVE TRACK 03 AUDIO TITLE "Jumpin' Jive" PERFORMER "Cab Calloway" INDEX 01 00:00:00FILE "04 - Give Baby Give.flac" WAVE TRACK 04 AUDIO TITLE "Give Baby Give" PERFORMER "Cab Calloway" INDEX 01 00:00:00FILE "05 - I Want To Rock.flac" WAVE TRACK 05 AUDIO TITLE "I Want To Rock" PERFORMER "Cab Calloway" INDEX 01 00:00:00FILE "06 - Minnie The Moocher.flac" WAVE TRACK 06 AUDIO TITLE "Minnie The Moocher" PERFORMER "Cab Calloway" INDEX 01 00:00:00FILE "07 - Honey Dripper.flac" WAVE TRACK 07 AUDIO TITLE "Honey Dripper" PERFORMER "Cab Calloway" INDEX 01 00:00:00FILE "08 - Hi De Ho Man.flac" WAVE TRACK 08 AUDIO TITLE "Hi De Ho Man" PERFORMER "Cab Calloway" INDEX 01 00:00:00FILE "09 - Jungle King.flac" WAVE TRACK 09 AUDIO TITLE "Jungle King" PERFORMER "Cab Calloway" INDEX 01 00:00:00FILE "10 - The Calloway Boogie.flac" WAVE TRACK 10 AUDIO TITLE "The Calloway Boogie" PERFORMER "Cab Calloway" INDEX 01 00:00:00FILE "11 - Two Blocks Down Town To The Left.flac" WAVE TRACK 11 AUDIO TITLE "Two Blocks Down Town To The Left" PERFORMER "Cab Calloway" INDEX 01 00:00:00FILE "12 - A Chicken Ain't Nothing But A Bird.flac" WAVE TRACK 12 AUDIO TITLE "A Chicken Ain't Nothing But A Bird" PERFORMER "Cab Calloway" INDEX 01 00:00:00FILE "13 - I Can't Give You Anything But Love.flac" WAVE TRACK 13 AUDIO TITLE "I Can't Give You Anything But Love" PERFORMER "Cab Calloway" INDEX 01 00:00:00FILE "14 - Stormy Weather.flac" WAVE TRACK 14 AUDIO TITLE "Stormy Weather" PERFORMER "Cab Calloway" INDEX 01 00:00:00FILE "15 - You Got It.flac" WAVE TRACK 15 AUDIO TITLE "You Got It" PERFORMER "Cab Calloway" INDEX 01 00:00:00FILE "16 - Everybody Eats When They Come To My House.flac" WAVE TRACK 16 AUDIO TITLE "Everybody Eats When They Come To My House" PERFORMER "Cab Calloway" INDEX 01 00:00:00FILE "17 - Afternoon Moon.flac" WAVE TRACK 17 AUDIO TITLE "Afternoon Moon" PERFORMER "Cab Calloway" INDEX 01 00:00:00FILE "18 - This Is Always.flac" WAVE TRACK 18 AUDIO TITLE "This Is Always" PERFORMER "Cab Calloway" INDEX 01 00:00:00FILE "19 - Duck Trot.flac" WAVE TRACK 19 AUDIO TITLE "Duck Trot" PERFORMER "Cab Calloway" INDEX 01 00:00:00FILE "20 - That Old Black Magic.flac" WAVE TRACK 20 AUDIO TITLE "That Old Black Magic" PERFORMER "Cab Calloway" INDEX 01 00:00:00FILE "21 - How Big Can You Get.flac" WAVE TRACK 21 AUDIO TITLE "How Big Can You Get" PERFORMER "Cab Calloway" INDEX 01 00:00:00FILE "22 - Hey Now Hey Now.flac" WAVE TRACK 22 AUDIO TITLE "Hey Now Hey Now" PERFORMER "Cab Calloway" INDEX 01 00:00:00FILE "23 - Birth Of The Blues.flac" WAVE TRACK 23 AUDIO TITLE "Birth Of The Blues" PERFORMER "Cab Calloway" INDEX 01 00:00:00FILE "24 - We The Cats Shall Help You.flac" WAVE TRACK 24 AUDIO TITLE "We The Cats Shall Help You" PERFORMER "Cab Calloway" INDEX 01 00:00:00FILE "25 - Foo A Little Ballyhoo.flac" WAVE TRACK 25 AUDIO TITLE "Foo A Little Ballyhoo" PERFORMER "Cab Calloway" INDEX 01 00:00:00


Трекер:  [ 27-Янв-2012 16:07 ]

  

Скачать .torrent

Размер .torrent файла 15 KB


Размер: 315 MB
Хэш (hash) релиза: c0847a52ae8bda7e251454ddf91b657b5b405c35

Еще никто не оставлял запись к записи скачать торрент Cab Calloway — The Cab Calloway Story — 1989, FLAC . Будь первым!

!Обратная связь