Скачать через торрент музыку Stephane Grappelli & Joe Venuti — Venupelli Blues бесплатно без регистрации torrent

Если у вас наблюдаются проблемы со скриншотами, переходом по ссылками, скачиванием торрентов - проблемы в блокировщике рекламы AdBlock. #хорошегоДня!


Статистика раздачи
Размер:  188 MB   |    Зарегистрирован:  5 лет 8 месяцев   |    .torrent скачан:  41 раз   |   
Раздают:  1  
   
Загрузка...
 
Автор Сообщение

Umakiro

avatar Umakiro


Stephane Grappelli & Joe Venuti – Venupelli Blues (1969)

Жанр: Swing, Gypsy
Год издания диска: 2002
Издатель (лейбл): Midnite Jazz & Blues
Номер по каталогу: MJB112
Аудиокодек: FLAC (*.flac)
Тип рипа: tracks+.cue
Битрейт аудио: lossless
Продолжительность: 31:49
Источник (релизер): вата
Наличие сканов в содержимом раздачи: да

Треклист:
01. I Can't Give You Anything But Love (8:31)
02. My One And Only Love (3:37)
03. After You've Gone (4:08)
04. Undecided (3:22)
05. Venupelli Blues (4:10)
06. Tea For Two (4:11)
07. I'll Never Be the Same (3:49)

Personnel:
Stephane Grappelli - vln
Joe Venuti - vln
George Wein - p
Barney Kessel - g
Larry Ridley - b
Don Lamond - d

Rec.: Paris, October 22, 1969.

 
 
Exact Audio Copy V0.99 prebeta 3 from 28. July 2007

EAC extraction logfile from 25. March 2008, 15:13

Stephane Grappelli & Joe Venuti / Venupelli Blues

Used drive : _NEC DVD_RW ND-3500AG Adapter: 3 ID: 0

Read mode : SecureUtilize accurate stream : YesDefeat audio cache : YesMake use of C2 pointers : No

Read offset correction : 12Overread into Lead-In and Lead-Out : NoFill up missing offset samples with silence : YesDelete leading and trailing silent blocks : NoNull samples used in CRC calculations : YesUsed interface : Installed external ASPI interfaceGap handling : Appended to previous track

Used output format : User Defined EncoderSelected bitrate : 768 kBit/sQuality : HighAdd ID3 tag : YesCommand line compressor : C:\Program Files\FLAC\flac.exeAdditional command line options : -8 -A tukey(0.25) -A gauss(0.1875) -b 4096 -V -T "artist=%a" -T "title=%t" -T "album=%g" -T "date=%y" -T "tracknumber=%n" -T "genre=%m" %s --sector-align

TOC of the extracted CD

Track | Start | Length | Start sector | End sector --------------------------------------------------------- 1 | 0:00.00 | 8:31.32 | 0 | 38356 2 | 8:31.32 | 3:37.04 | 38357 | 54635 3 | 12:08.36 | 4:08.22 | 54636 | 73257 4 | 16:16.58 | 3:22.30 | 73258 | 88437 5 | 19:39.13 | 4:10.25 | 88438 | 107212 6 | 23:49.38 | 4:10.39 | 107213 | 126001 7 | 28:00.02 | 3:49.33 | 126002 | 143209

Track 1

Filename E:\Music\Jazz & Blues\Grappelli & Venuti - Venupelli Blues\01. Stephane Grappelli & Joe Venuti - I Can't Give You Anything but Love.wav

Pre-gap length 0:00:02.00

Peak level 94.0 % Track quality 100.0 % Test CRC 2156ED6B Copy CRC 2156ED6B Copy OK

Track 2

Filename E:\Music\Jazz & Blues\Grappelli & Venuti - Venupelli Blues\02. Stephane Grappelli & Joe Venuti - My One and Only Love.wav

Pre-gap length 0:00:01.00

Peak level 94.0 % Track quality 100.0 % Test CRC CCA42693 Copy CRC CCA42693 Copy OK

Track 3

Filename E:\Music\Jazz & Blues\Grappelli & Venuti - Venupelli Blues\03. Stephane Grappelli & Joe Venuti - After You've Gone.wav

Pre-gap length 0:00:01.00

Peak level 94.0 % Track quality 100.0 % Test CRC 9222D354 Copy CRC 9222D354 Copy OK

Track 4

Filename E:\Music\Jazz & Blues\Grappelli & Venuti - Venupelli Blues\04. Stephane Grappelli & Joe Venuti - Undecided.wav

Pre-gap length 0:00:01.00

Peak level 93.9 % Track quality 100.0 % Test CRC 654DF11C Copy CRC 654DF11C Copy OK

Track 5

Filename E:\Music\Jazz & Blues\Grappelli & Venuti - Venupelli Blues\05. Stephane Grappelli & Joe Venuti - Venupelli Blues.wav

Pre-gap length 0:00:01.00

Peak level 94.0 % Track quality 100.0 % Test CRC D37F868A Copy CRC D37F868A Copy OK

Track 6

Filename E:\Music\Jazz & Blues\Grappelli & Venuti - Venupelli Blues\06. Stephane Grappelli & Joe Venuti - Tea for Two.wav

Pre-gap length 0:00:01.00

Peak level 94.0 % Track quality 100.0 % Test CRC 0A94F37D Copy CRC 0A94F37D Copy OK

Track 7

Filename E:\Music\Jazz & Blues\Grappelli & Venuti - Venupelli Blues\07. Stephane Grappelli & Joe Venuti - I'll Never Be the Same.wav

Pre-gap length 0:00:01.00

Peak level 94.0 % Track quality 100.0 % Test CRC ACABE0CD Copy CRC ACABE0CD Copy OK

No errors occurred

End of status report
 
REM GENRE SwingREM DATE 2004REM DISCID 52077507REM COMMENT "ExactAudioCopy v0.99pb3"PERFORMER "Stephane Grappelli & Joe Venuti"TITLE "Venupelli Blues"FILE "01. I Can't Give You Anything But Love.flac" WAVE TRACK 01 AUDIO TITLE "I Can't Give You Anything But Love" PERFORMER "Stephane Grappelli & Joe Venuti" INDEX 01 00:00:00 TRACK 02 AUDIO TITLE "My One And Only Love" PERFORMER "Stephane Grappelli & Joe Venuti" INDEX 00 08:30:32FILE "02. My One And Only Love.flac" WAVE INDEX 01 00:00:00 TRACK 03 AUDIO TITLE "After You've Gone" PERFORMER "Stephane Grappelli & Joe Venuti" INDEX 00 03:36:04FILE "03. After You've Gone.flac" WAVE INDEX 01 00:00:00 TRACK 04 AUDIO TITLE "Undecided" PERFORMER "Stephane Grappelli & Joe Venuti" INDEX 00 04:07:22FILE "04. Undecided.flac" WAVE INDEX 01 00:00:00 TRACK 05 AUDIO TITLE "Venupelli Blues" PERFORMER "Stephane Grappelli & Joe Venuti" INDEX 00 03:21:30FILE "05. Venupelli Blues.flac" WAVE INDEX 01 00:00:00 TRACK 06 AUDIO TITLE "Tea for Two" PERFORMER "Stephane Grappelli & Joe Venuti" INDEX 00 04:09:25FILE "06. Tea for Two.flac" WAVE INDEX 01 00:00:00 TRACK 07 AUDIO TITLE "I'll Never Be The Same" PERFORMER "Stephane Grappelli & Joe Venuti" INDEX 00 04:09:39FILE "07. I'll Never Be The Same.flac" WAVE INDEX 01 00:00:00
 
[CUETools log; Date: 13.01.2012 16:08:18; Version: 2.0.9][CTDB TOCID: .hitesnb_X3fOJHPVLPo3YsnHnA-] disk not present in database.[AccurateRip ID: 0009a14a-0037a561-52077507] disk not present in database.

Track Peak [ CRC32 ] [W/O NULL] [ LOG ] -- 94,0 [B9F8AB3D] [2B59BB80] 01 94,0 [2156ED6B] [F8CC07AC] CRC32 02 94,0 [CCA42693] [F5015F5E] CRC32 03 94,0 [9222D354] [789A98C6] CRC32 04 93,9 [654DF11C] [DC567FE1] CRC32 05 94,0 [D37F868A] [01C26F9D] CRC32 06 94,0 [0A94F37D] [B82165FD] CRC32 07 94,0 [ACABE0CD] [B79FCD18] CRC32


Трекер:  [ 27-Янв-2012 16:06 ]

  

Скачать .torrent

Размер .torrent файла 16 KB


Размер: 188 MB
Хэш (hash) релиза: 7269f471247c6806f29b37412ddac825f1ecdd35

Еще никто не оставлял запись к записи скачать торрент Stephane Grappelli & Joe Venuti — Venupelli Blues . Будь первым!

!Обратная связь