Скачать через торрент музыку Didier Lockwood — Tribute To Stephane Grappelli бесплатно без регистрации torrent

Если у вас наблюдаются проблемы со скриншотами, переходом по ссылками, скачиванием торрентов - проблемы в блокировщике рекламы AdBlock. #хорошегоДня!


Статистика раздачи
Размер:  292 MB   |    Зарегистрирован:  5 лет 8 месяцев   |    .torrent скачан:  32 раза   |   
Раздают:  1  
   
Загрузка...
 
Автор Сообщение

Umakiro

avatar Umakiro


Didier Lockwood – Tribute To Stéphane Grappelli (1999)

Жанр: Swing
Год издания диска: 2000
Издатель (лейбл): Dreyfus
Номер по каталогу: FDM 36611-2
Аудиокодек: FLAC (*.flac)
Тип рипа: tracks+.cue
Битрейт аудио: lossless
Продолжительность: 64:47
Источник (релизер): вата
Наличие сканов в содержимом раздачи: front, back

Треклист:
01. Les Valseuses (3:07)
02. I Got Rhythm (3:20)
03. Nuages (5:53)
04. Barbizon Blues (4:19)
05. All The Things You Are (3:38)
06. My One And Only Love (3:27)
07. The Kid (4:07)
08. Someday My Prince Will Come (5:37)
09. Minor Swing (4:15)
10. Misty (6:13)
11. Paint Up House (3:34)
12. Tears (4:50)
13. In A Sentimental Mood (5:56)
14. Beautiful Love (6:30)

Personnel:
Didier Lockwood - vln
Biréli Lagrène - g
Niels-Henning Ørsted Pedersen - b

Rec.: Studio De La Foret, France, December 7-9, 1999.
 
 
Exact Audio Copy V0.99 prebeta 5 from 4. May 2009

EAC extraction logfile from 17. July 2010, 14:57

Didier Lockwood / Tribute To Stephane Grappelli

Used drive : OPTIARC DVD RW AD-5680H Adapter: 1 ID: 0

Read mode : SecureUtilize accurate stream : YesDefeat audio cache : YesMake use of C2 pointers : No

Read offset correction : 48Overread into Lead-In and Lead-Out : NoFill up missing offset samples with silence : YesDelete leading and trailing silent blocks : NoNull samples used in CRC calculations : YesUsed interface : Native Win32 interface for Win NT & 2000Gap handling : Appended to previous track

Used output format : User Defined EncoderSelected bitrate : 1024 kBit/sQuality : HighAdd ID3 tag : NoCommand line compressor : C:\Program Files\Exact Audio Copy\Flac\flac.exeAdditional command line options : -6 -V -T "ARTIST=%a" -T "TITLE=%t" -T "ALBUM=%g" -T "DATE=%y" -T "TRACKNUMBER=%n" -T "GENRE=%m" -T "COMMENT=%e" %s -o %d

TOC of the extracted CD

Track | Start | Length | Start sector | End sector --------------------------------------------------------- 1 | 0:00.00 | 3:06.48 | 0 | 13997 2 | 3:06.48 | 3:20.17 | 13998 | 29014 3 | 6:26.65 | 5:53.03 | 29015 | 55492 4 | 12:19.68 | 4:19.37 | 55493 | 74954 5 | 16:39.30 | 3:37.50 | 74955 | 91279 6 | 20:17.05 | 3:27.13 | 91280 | 106817 7 | 23:44.18 | 4:06.72 | 106818 | 125339 8 | 27:51.15 | 5:37.08 | 125340 | 150622 9 | 33:28.23 | 4:15.27 | 150623 | 169774 10 | 37:43.50 | 6:13.15 | 169775 | 197764 11 | 43:56.65 | 3:33.63 | 197765 | 213802 12 | 47:30.53 | 4:50.15 | 213803 | 235567 13 | 52:20.68 | 5:55.45 | 235568 | 262237 14 | 58:16.38 | 6:30.12 | 262238 | 291499

Track 1

Filename C:\Users\bastien\Music\Didier Lockwood - Tribute To Stephane Grappelli\01 - Les Valseuses.wav

Pre-gap length 0:00:02.00

Peak level 90.6 % Track quality 99.9 % Test CRC A15CF5C8 Copy CRC A15CF5C8 Accurately ripped (confidence 15) [55734836] Copy OK

Track 2

Filename C:\Users\bastien\Music\Didier Lockwood - Tribute To Stephane Grappelli\02 - I Got Rhythm.wav

Pre-gap length 0:00:00.73

Peak level 83.5 % Track quality 99.9 % Test CRC 295CFE66 Copy CRC 295CFE66 Accurately ripped (confidence 15) [49331FCA] Copy OK

Track 3

Filename C:\Users\bastien\Music\Didier Lockwood - Tribute To Stephane Grappelli\03 - Nuages.wav

Pre-gap length 0:00:00.45

Peak level 92.4 % Track quality 100.0 % Test CRC 7C70F999 Copy CRC 7C70F999 Accurately ripped (confidence 15) [4204FCD6] Copy OK

Track 4

Filename C:\Users\bastien\Music\Didier Lockwood - Tribute To Stephane Grappelli\04 - Barbizon Blues.wav

Pre-gap length 0:00:00.65

Peak level 98.1 % Track quality 100.0 % Test CRC 285B0CE2 Copy CRC 285B0CE2 Accurately ripped (confidence 15) [C1DFAF3C] Copy OK

Track 5

Filename C:\Users\bastien\Music\Didier Lockwood - Tribute To Stephane Grappelli\05 - All The Things You Are.wav

Pre-gap length 0:00:00.65

Peak level 95.0 % Track quality 100.0 % Test CRC 5B9F8D27 Copy CRC 5B9F8D27 Accurately ripped (confidence 15) [4369958E] Copy OK

Track 6

Filename C:\Users\bastien\Music\Didier Lockwood - Tribute To Stephane Grappelli\06 - My One And Only Love.wav

Pre-gap length 0:00:01.15

Peak level 89.7 % Track quality 100.0 % Test CRC 3E7BE9DB Copy CRC 3E7BE9DB Accurately ripped (confidence 14) [6E12B3E1] Copy OK

Track 7

Filename C:\Users\bastien\Music\Didier Lockwood - Tribute To Stephane Grappelli\07 - The Kid.wav

Pre-gap length 0:00:01.30

Peak level 81.6 % Track quality 100.0 % Test CRC E3282FF0 Copy CRC E3282FF0 Accurately ripped (confidence 15) [B7B14C6A] Copy OK

Track 8

Filename C:\Users\bastien\Music\Didier Lockwood - Tribute To Stephane Grappelli\08 - Someday My Prince Will Come.wav

Pre-gap length 0:00:00.67

Peak level 82.9 % Track quality 100.0 % Test CRC ADDCC269 Copy CRC ADDCC269 Accurately ripped (confidence 15) [6A7F799E] Copy OK

Track 9

Filename C:\Users\bastien\Music\Didier Lockwood - Tribute To Stephane Grappelli\09 - Minor Swing.wav

Pre-gap length 0:00:01.18

Peak level 89.5 % Track quality 99.9 % Test CRC C28FF9FC Copy CRC C28FF9FC Accurately ripped (confidence 15) [5BD15061] Copy OK

Track 10

Filename C:\Users\bastien\Music\Didier Lockwood - Tribute To Stephane Grappelli\10 - Misty.wav

Pre-gap length 0:00:00.52

Peak level 83.9 % Track quality 100.0 % Test CRC A691ECCF Copy CRC A691ECCF Accurately ripped (confidence 15) [3B77A9F9] Copy OK

Track 11

Filename C:\Users\bastien\Music\Didier Lockwood - Tribute To Stephane Grappelli\11 - Pent-up House.wav

Pre-gap length 0:00:01.05

Peak level 94.0 % Track quality 99.9 % Test CRC F76CE1C8 Copy CRC F76CE1C8 Accurately ripped (confidence 15) [C473C711] Copy OK

Track 12

Filename C:\Users\bastien\Music\Didier Lockwood - Tribute To Stephane Grappelli\12 - Tears.wav

Pre-gap length 0:00:00.58

Peak level 84.5 % Track quality 99.9 % Test CRC 00CE5E01 Copy CRC 00CE5E01 Accurately ripped (confidence 14) [596E8A37] Copy OK

Track 13

Filename C:\Users\bastien\Music\Didier Lockwood - Tribute To Stephane Grappelli\13 - In A Sentimental Mood.wav

Pre-gap length 0:00:00.53

Peak level 65.3 % Track quality 100.0 % Test CRC 4A61B927 Copy CRC 4A61B927 Accurately ripped (confidence 14) [0FFD668A] Copy OK

Track 14

Filename C:\Users\bastien\Music\Didier Lockwood - Tribute To Stephane Grappelli\14 - Beautiful Love.wav

Pre-gap length 0:00:00.48

Peak level 78.8 % Track quality 100.0 % Test CRC 380F004E Copy CRC 380F004E Accurately ripped (confidence 14) [57396CB9] Copy OK

All tracks accurately ripped

No errors occurred

End of status report
 
REM GENRE JazzREM DATE 2000REM DISCID B70F2E0EREM COMMENT "ExactAudioCopy v0.99pb5"PERFORMER "Didier Lockwood"TITLE "Tribute To Stephane Grappelli"FILE "01. Les Valseuses.flac" WAVE TRACK 01 AUDIO TITLE "Les Valseuses" PERFORMER "Didier Lockwood" INDEX 01 00:00:00 TRACK 02 AUDIO TITLE "I Got Rhythm" PERFORMER "Didier Lockwood" INDEX 00 03:05:50FILE "02. I Got Rhythm.flac" WAVE INDEX 01 00:00:00 TRACK 03 AUDIO TITLE "Nuages" PERFORMER "Didier Lockwood" INDEX 00 03:19:47FILE "03. Nuages.flac" WAVE INDEX 01 00:00:00 TRACK 04 AUDIO TITLE "Barbizon Blues" PERFORMER "Didier Lockwood" INDEX 00 05:52:13FILE "04. Barbizon Blues.flac" WAVE INDEX 01 00:00:00 TRACK 05 AUDIO TITLE "All The Things You Are" PERFORMER "Didier Lockwood" INDEX 00 04:18:47FILE "05. All The Things You Are.flac" WAVE INDEX 01 00:00:00 TRACK 06 AUDIO TITLE "My One And Only Love" PERFORMER "Didier Lockwood" INDEX 00 03:36:35FILE "06. My One And Only Love.flac" WAVE INDEX 01 00:00:00 TRACK 07 AUDIO TITLE "The Kid" PERFORMER "Didier Lockwood" INDEX 00 03:25:58FILE "07. The Kid.flac" WAVE INDEX 01 00:00:00 TRACK 08 AUDIO TITLE "Someday My Prince Will Come" PERFORMER "Didier Lockwood" INDEX 00 04:06:05FILE "08. Someday My Prince Will Come.flac" WAVE INDEX 01 00:00:00 TRACK 09 AUDIO TITLE "Minor Swing" PERFORMER "Didier Lockwood" INDEX 00 05:35:65FILE "09. Minor Swing.flac" WAVE INDEX 01 00:00:00 TRACK 10 AUDIO TITLE "Misty" PERFORMER "Didier Lockwood" INDEX 00 04:14:50FILE "10. Misty.flac" WAVE INDEX 01 00:00:00 TRACK 11 AUDIO TITLE "Paint Up House" PERFORMER "Didier Lockwood" INDEX 00 06:12:10FILE "11. Paint Up House.flac" WAVE INDEX 01 00:00:00 TRACK 12 AUDIO TITLE "Tears" PERFORMER "Didier Lockwood" INDEX 00 03:33:05FILE "12. Tears.flac" WAVE INDEX 01 00:00:00 TRACK 13 AUDIO TITLE "In A Sentimental Mood" PERFORMER "Didier Lockwood" INDEX 00 04:49:37FILE "13. In A Sentimental Mood.flac" WAVE INDEX 01 00:00:00 TRACK 14 AUDIO TITLE "Beautiful Love" PERFORMER "Didier Lockwood" INDEX 00 05:54:72FILE "14. Beautiful Love.flac" WAVE INDEX 01 00:00:00


Трекер:  [ 27-Янв-2012 16:06 ]

  

Скачать .torrent

Размер .torrent файла 13 KB


Размер: 292 MB
Хэш (hash) релиза: 13a58cd9e3f7ab0f51f5a618872b99489af0310e

Еще никто не оставлял запись к записи скачать торрент Didier Lockwood — Tribute To Stephane Grappelli . Будь первым!

!Обратная связь