Скачать через торрент музыку Pete Fountain - A Touch Of Class - 1995, FLAC бесплатно без регистрации torrent

Если у вас наблюдаются проблемы со скриншотами, переходом по ссылками, скачиванием торрентов - проблемы в блокировщике рекламы AdBlock. #хорошегоДня!


Статистика раздачи
Размер:  320 MB   |    Зарегистрирован:  5 лет 8 месяцев   |    .torrent скачан:  33 раза   |   
Раздают:  1  
   
Загрузка...
 
Автор Сообщение

Umakiro

avatar Umakiro


Pete Fountain – A Touch Of Class

Жанр: Orchestral Jazz
Год издания диска: 1995
Издатель (лейбл): Ranwood
Номер по каталогу: MSD 35808
Аудиокодек: FLAC (*.flac)
Тип рипа: tracks+.cue
Битрейт аудио: lossless
Продолжительность: 57:01
Источник (релизер): вата
Наличие сканов в содержимом раздачи: сетевые

Треклист:
01. La Vie En Rose (3:10)
02. Autumn Leaves (2:51)
03. I Love Paris (2:51)
04. Two Loves Have I (3:50)
05. Comme Ci, Comme Ca (3:25)
06. April In Paris (3:11)
07. Tout De Suite (3:10)
08. C'est Si Bon (2:50)
09. C'est Magnifique (3:14)
10. Miss Lucy (3:49)
11. My Man (3:29)
12. Mood Indigo (3:45)
13. The Song From Mouline Rouge (3:08)
14. Your Cheatin' Heart (3:04)
15. Fa So La Blues (3:14)
16. You're Nobody 'Till Somebody Loves You (2:51)
17. Frere Jazz (2:17)
18. Rhapsody In Blue (2:52)

 
 
Exact Audio Copy V1.0 beta 2 from 29. April 2011

EAC extraction logfile from 19. September 2011, 1:39

Pete Fountain / A Touch Of Class

Used drive : ATAPI iHAS424 B Adapter: 0 ID: 2

Read mode : SecureUtilize accurate stream : YesDefeat audio cache : YesMake use of C2 pointers : No

Read offset correction : 6Overread into Lead-In and Lead-Out : NoFill up missing offset samples with silence : YesDelete leading and trailing silent blocks : NoNull samples used in CRC calculations : YesUsed interface : Native Win32 interface for Win NT & 2000Gap handling : Appended to previous track

Used output format : User Defined EncoderSelected bitrate : 1024 kBit/sQuality : HighAdd ID3 tag : NoCommand line compressor : C:\Program Files (x86)\Exact Audio Copy\Flac\flac.exeAdditional command line options : -8 -V -T "ARTIST=%artist%" -T "TITLE=%title%" -T "ALBUM=%albumtitle%" -T "DATE=%year%" -T "TRACKNUMBER=%tracknr%" -T "GENRE=%genre%" -T "PERFORMER=%albuminterpret%" -T "COMPOSER=%composer%" %haslyrics%--tag-from-file=LYRICS

TOC of the extracted CD

Track | Start | Length | Start sector | End sector --------------------------------------------------------- 1 | 0:00.00 | 3:09.67 | 0 | 14241 2 | 3:09.67 | 2:51.05 | 14242 | 27071 3 | 6:00.72 | 2:51.15 | 27072 | 39911 4 | 8:52.12 | 3:50.15 | 39912 | 57176 5 | 12:42.27 | 3:25.00 | 57177 | 72551 6 | 16:07.27 | 3:10.70 | 72552 | 86871 7 | 19:18.22 | 3:09.68 | 86872 | 101114 8 | 22:28.15 | 2:49.65 | 101115 | 113854 9 | 25:18.05 | 3:14.25 | 113855 | 128429 10 | 28:32.30 | 3:49.05 | 128430 | 145609 11 | 32:21.35 | 3:28.74 | 145610 | 161283 12 | 35:50.34 | 3:45.11 | 161284 | 178169 13 | 39:35.45 | 3:08.37 | 178170 | 192306 14 | 42:44.07 | 3:03.53 | 192307 | 206084 15 | 45:47.60 | 3:13.65 | 206085 | 220624 16 | 49:01.50 | 2:50.45 | 220625 | 233419 17 | 51:52.20 | 2:17.22 | 233420 | 243716 18 | 54:09.42 | 2:51.50 | 243717 | 256591

Track 1

Filename C:\EAC\Pete Fountain - A Touch Of Class (FLAC)\01 - La Vie En Rose.wav

Pre-gap length 0:00:02.00

Peak level 84.5 % Extraction speed 2.5 X Track quality 99.9 % Test CRC 7F230DF0 Copy CRC 7F230DF0 Accurately ripped (confidence 1) [3EE4B421] (AR v1) Copy OK

Track 2

Filename C:\EAC\Pete Fountain - A Touch Of Class (FLAC)\02 - Autumn Leaves.wav

Pre-gap length 0:00:03.29

Peak level 88.4 % Extraction speed 3.5 X Track quality 100.0 % Test CRC 83A90AD8 Copy CRC 83A90AD8 Accurately ripped (confidence 1) [BAFF396F] (AR v1) Copy OK

Track 3

Filename C:\EAC\Pete Fountain - A Touch Of Class (FLAC)\03 - I Love Paris.wav

Pre-gap length 0:00:03.33

Peak level 88.9 % Extraction speed 3.7 X Track quality 100.0 % Test CRC 9BF87580 Copy CRC 9BF87580 Accurately ripped (confidence 1) [8C8B7110] (AR v1) Copy OK

Track 4

Filename C:\EAC\Pete Fountain - A Touch Of Class (FLAC)\04 - Two Loves Have I.wav

Pre-gap length 0:00:03.56

Peak level 81.4 % Extraction speed 4.2 X Track quality 100.0 % Test CRC E731670F Copy CRC E731670F Accurately ripped (confidence 1) [E1190E19] (AR v1) Copy OK

Track 5

Filename C:\EAC\Pete Fountain - A Touch Of Class (FLAC)\05 - Comme Ci, Comme Ca.wav

Pre-gap length 0:00:02.93

Peak level 86.9 % Extraction speed 4.4 X Track quality 100.0 % Test CRC 2A1A1388 Copy CRC 2A1A1388 Accurately ripped (confidence 1) [D8567780] (AR v1) Copy OK

Track 6

Filename C:\EAC\Pete Fountain - A Touch Of Class (FLAC)\06 - April In Paris.wav

Pre-gap length 0:00:02.53

Peak level 86.4 % Extraction speed 4.5 X Track quality 100.0 % Test CRC 2BD53EB0 Copy CRC 2BD53EB0 Accurately ripped (confidence 1) [0758AD5A] (AR v1) Copy OK

Track 7

Filename C:\EAC\Pete Fountain - A Touch Of Class (FLAC)\07 - Tout De Suite.wav

Pre-gap length 0:00:02.96

Peak level 89.0 % Extraction speed 3.6 X Track quality 99.9 % Test CRC E4E719FB Copy CRC E4E719FB Accurately ripped (confidence 1) [43B27E8F] (AR v1) Copy OK

Track 8

Filename C:\EAC\Pete Fountain - A Touch Of Class (FLAC)\08 - C'est Si Bon.wav

Pre-gap length 0:00:02.57

Peak level 79.4 % Extraction speed 4.8 X Track quality 100.0 % Test CRC 24BD3C5C Copy CRC 24BD3C5C Accurately ripped (confidence 1) [1302C5C2] (AR v1) Copy OK

Track 9

Filename C:\EAC\Pete Fountain - A Touch Of Class (FLAC)\09 - C'est Magnifique.wav

Pre-gap length 0:00:02.30

Peak level 90.9 % Extraction speed 5.1 X Track quality 100.0 % Test CRC BD0F9235 Copy CRC BD0F9235 Accurately ripped (confidence 1) [F131888A] (AR v1) Copy OK

Track 10

Filename C:\EAC\Pete Fountain - A Touch Of Class (FLAC)\10 - Miss Lucy.wav

Pre-gap length 0:00:02.44

Peak level 50.2 % Extraction speed 4.3 X Track quality 99.9 % Test CRC 4FCA2A33 Copy CRC 4FCA2A33 Accurately ripped (confidence 1) [1C875288] (AR v1) Copy OK

Track 11

Filename C:\EAC\Pete Fountain - A Touch Of Class (FLAC)\11 - My Man.wav

Pre-gap length 0:00:02.17

Peak level 100.0 % Extraction speed 5.6 X Track quality 100.0 % Test CRC F0FFF571 Copy CRC F0FFF571 Accurately ripped (confidence 1) [60B89BAB] (AR v1) Copy OK

Track 12

Filename C:\EAC\Pete Fountain - A Touch Of Class (FLAC)\12 - Mood Indigo.wav

Pre-gap length 0:00:02.09

Peak level 52.7 % Extraction speed 5.9 X Track quality 100.0 % Test CRC 47F3DAE0 Copy CRC 47F3DAE0 Accurately ripped (confidence 1) [38C52FD9] (AR v1) Copy OK

Track 13

Filename C:\EAC\Pete Fountain - A Touch Of Class (FLAC)\13 - The Song From Mouline Rouge.wav

Pre-gap length 0:00:02.64

Peak level 80.3 % Extraction speed 5.8 X Track quality 100.0 % Test CRC 87B0014D Copy CRC 87B0014D Accurately ripped (confidence 1) [77113547] (AR v1) Copy OK

Track 14

Filename C:\EAC\Pete Fountain - A Touch Of Class (FLAC)\14 - Your Cheatin' Heart.wav

Pre-gap length 0:00:01.64

Peak level 60.5 % Extraction speed 6.0 X Track quality 100.0 % Test CRC 585E2A08 Copy CRC 585E2A08 Accurately ripped (confidence 1) [B1D9CEDC] (AR v1) Copy OK

Track 15

Filename C:\EAC\Pete Fountain - A Touch Of Class (FLAC)\15 - Fa So La Blues.wav

Pre-gap length 0:00:03.06

Peak level 69.1 % Extraction speed 4.7 X Track quality 99.9 % Test CRC 459B442F Copy CRC 459B442F Accurately ripped (confidence 1) [E4D13542] (AR v1) Copy OK

Track 16

Filename C:\EAC\Pete Fountain - A Touch Of Class (FLAC)\16 - You're Nobody 'Till Somebody Loves You.wav

Pre-gap length 0:00:02.64

Peak level 58.2 % Extraction speed 6.2 X Track quality 100.0 % Test CRC DC7FCF44 Copy CRC DC7FCF44 Accurately ripped (confidence 1) [5C3DCC8F] (AR v1) Copy OK

Track 17

Filename C:\EAC\Pete Fountain - A Touch Of Class (FLAC)\17 - Frere Jazz.wav

Pre-gap length 0:00:01.86

Peak level 96.1 % Extraction speed 6.1 X Track quality 100.0 % Test CRC 211DECC0 Copy CRC 211DECC0 Accurately ripped (confidence 1) [0F8E2C05] (AR v1) Copy OK

Track 18

Filename C:\EAC\Pete Fountain - A Touch Of Class (FLAC)\18 - Rhapsody In Blue.wav

Pre-gap length 0:00:02.49

Peak level 67.1 % Extraction speed 4.8 X Track quality 99.9 % Test CRC BF922BCC Copy CRC BF922BCC Accurately ripped (confidence 1) [84633A5A] (AR v1) Copy OK

All tracks accurately ripped

No errors occurred

End of status report

---- CUETools DB Plugin V2.1.2

[CTDB TOCID: RhEOlZ1cNtD1tVHAZgKAVCAMW.M-] disk not present in database, Submit result: RhEOlZ1cNtD1tVHAZgKAVCAMW.M- has been uploaded

==== Log checksum 48A4820448435045C934360E3755BCE88F32CACBD4BD3ACB694F8D5F237080D2 ====
 
REM GENRE JazzREM DATE 1995REM DISCID F00D5D12REM COMMENT "ExactAudioCopy v1.0b2"PERFORMER "Pete Fountain"TITLE "A Touch Of Class"FILE "01 - La Vie En Rose.wav" WAVE TRACK 01 AUDIO TITLE "La Vie En Rose" PERFORMER "Pete Fountain" INDEX 01 00:00:00 TRACK 02 AUDIO TITLE "Autumn Leaves" PERFORMER "Pete Fountain" INDEX 00 03:06:45FILE "02 - Autumn Leaves.wav" WAVE INDEX 01 00:00:00 TRACK 03 AUDIO TITLE "I Love Paris" PERFORMER "Pete Fountain" INDEX 00 02:47:55FILE "03 - I Love Paris.wav" WAVE INDEX 01 00:00:00 TRACK 04 AUDIO TITLE "Two Loves Have I" PERFORMER "Pete Fountain" INDEX 00 02:47:48FILE "04 - Two Loves Have I.wav" WAVE INDEX 01 00:00:00 TRACK 05 AUDIO TITLE "Comme Ci, Comme Ca" PERFORMER "Pete Fountain" INDEX 00 03:47:20FILE "05 - Comme Ci, Comme Ca.wav" WAVE INDEX 01 00:00:00 TRACK 06 AUDIO TITLE "April In Paris" PERFORMER "Pete Fountain" INDEX 00 03:22:35FILE "06 - April In Paris.wav" WAVE INDEX 01 00:00:00 TRACK 07 AUDIO TITLE "Tout De Suite" PERFORMER "Pete Fountain" INDEX 00 03:07:73FILE "07 - Tout De Suite.wav" WAVE INDEX 01 00:00:00 TRACK 08 AUDIO TITLE "C'est Si Bon" PERFORMER "Pete Fountain" INDEX 00 03:07:25FILE "08 - C'est Si Bon.wav" WAVE INDEX 01 00:00:00 TRACK 09 AUDIO TITLE "C'est Magnifique" PERFORMER "Pete Fountain" INDEX 00 02:47:42FILE "09 - C'est Magnifique.wav" WAVE INDEX 01 00:00:00 TRACK 10 AUDIO TITLE "Miss Lucy" PERFORMER "Pete Fountain" INDEX 00 03:11:67FILE "10 - Miss Lucy.wav" WAVE INDEX 01 00:00:00 TRACK 11 AUDIO TITLE "My Man" PERFORMER "Pete Fountain" INDEX 00 03:46:67FILE "11 - My Man.wav" WAVE INDEX 01 00:00:00 TRACK 12 AUDIO TITLE "Mood Indigo" PERFORMER "Pete Fountain" INDEX 00 03:26:67FILE "12 - Mood Indigo.wav" WAVE INDEX 01 00:00:00 TRACK 13 AUDIO TITLE "The Song From Mouline Rouge" PERFORMER "Pete Fountain" INDEX 00 03:42:38FILE "13 - The Song From Mouline Rouge.wav" WAVE INDEX 01 00:00:00 TRACK 14 AUDIO TITLE "Your Cheatin' Heart" PERFORMER "Pete Fountain" INDEX 00 03:06:64FILE "14 - Your Cheatin' Heart.wav" WAVE INDEX 01 00:00:00 TRACK 15 AUDIO TITLE "Fa So La Blues" PERFORMER "Pete Fountain" INDEX 00 03:00:48FILE "15 - Fa So La Blues.wav" WAVE INDEX 01 00:00:00 TRACK 16 AUDIO TITLE "You're Nobody 'Till Somebody Loves You" PERFORMER "Pete Fountain" INDEX 00 03:11:17FILE "16 - You're Nobody 'Till Somebody Loves You.wav" WAVE INDEX 01 00:00:00 TRACK 17 AUDIO TITLE "Frere Jazz" PERFORMER "Pete Fountain" INDEX 00 02:48:55FILE "17 - Frere Jazz.wav" WAVE INDEX 01 00:00:00 TRACK 18 AUDIO TITLE "Rhapsody In Blue" PERFORMER "Pete Fountain" INDEX 00 02:14:60FILE "18 - Rhapsody In Blue.wav" WAVE INDEX 01 00:00:00
This CD from Pete Fountain is a bit of a disappointment. The clarinetist does little more than show off his attractive tone on 18 brief songs (many associated with France). The unidentified backing (which often includes a string section) leaves no impression whatsoever and Fountain's fairly straight melody readings do little to uplift the tunes. At best this is superior background music.


Трекер:  [ 27-Янв-2012 16:05 ]

  

Скачать .torrent

Размер .torrent файла 14 KB


Размер: 320 MB
Хэш (hash) релиза: dcd2e0dc002362db7d474f8dabf516d2f3c6a524

Еще никто не оставлял запись к записи скачать торрент Pete Fountain - A Touch Of Class - 1995, FLAC . Будь первым!

!Обратная связь