Скачать через торрент музыку Tommy Emmanuel - Endless Road - 2005, FLAC бесплатно без регистрации torrent

Если у вас наблюдаются проблемы со скриншотами, переходом по ссылками, скачиванием торрентов - проблемы в блокировщике рекламы AdBlock. #хорошегоДня!


Статистика раздачи
Размер:  329 MB   |    Зарегистрирован:  5 лет 8 месяцев   |    .torrent скачан:  47 раз   |   
Раздают:  1  
   
Загрузка...
 
Автор Сообщение

Umakiro

avatar Umakiro


Tommy Emmanuel – Endless Road

Жанр: Smooth Jazz
Год издания диска: 2005
Аудиокодек: FLAC (*.flac)
Тип рипа: tracks+.cue
Битрейт аудио: lossless
Продолжительность: 57:21
Источник (релизер): вата
Cканов нет
Треклист:
01. Endless Road (4:33)
02. Tall Fiddler (2:28)
03. (The Man With The) Green Thumb (3:20)
04. Bella Soave (2:22)
05. Morning Aire (5:57)
06. Angelina (3:42)
07. Windy & Warm (2:48)
08. Chet's Ramble (2:43)
09. Son Of A Gun (1:50)
10. Sanitarium Shuffle (3:18)
11. La Visita (3:25)
12. Mona Lisa (3:53)
13. Christmas Memories / Wheels (3:24)
14. Old Town (3:04)
15. Somewhere Over The Rainbow (4:22)
16. I Still Can't Say Goodbye (3:25)
17. Today Is Mine (2:47)
 
 
Exact Audio Copy V1.0 beta 3 from 29. August 2011

EAC extraction logfile from 19. January 2012, 10:19

Tommy Emmanuel / Endless Road

Used drive : ASUS DRW-24B3ST Adapter: 0 ID: 2

Read mode : SecureUtilize accurate stream : YesDefeat audio cache : YesMake use of C2 pointers : No

Read offset correction : 6Overread into Lead-In and Lead-Out : NoFill up missing offset samples with silence : YesDelete leading and trailing silent blocks : NoNull samples used in CRC calculations : YesUsed interface : Native Win32 interface for Win NT & 2000Gap handling : Appended to previous track

Used output format : User Defined EncoderSelected bitrate : 1024 kBit/sQuality : HighAdd ID3 tag : NoCommand line compressor : C:\Program Files (x86)\Exact Audio Copy\Flac\flac.exeAdditional command line options : -8 -V -T "Artist=%artist%" -T "Title=%title%" -T "Album=%albumtitle%" -T "Date=%year%" -T "Tracknumber=%tracknr%" -T "Genre=%genre%" %source% -o %dest%

TOC of the extracted CD

Track | Start | Length | Start sector | End sector --------------------------------------------------------- 1 | 0:00.00 | 4:32.55 | 0 | 20454 2 | 4:32.55 | 2:28.26 | 20455 | 31580 3 | 7:01.06 | 3:20.23 | 31581 | 46603 4 | 10:21.29 | 2:22.17 | 46604 | 57270 5 | 12:43.46 | 5:56.71 | 57271 | 84041 6 | 18:40.42 | 3:41.70 | 84042 | 100686 7 | 22:22.37 | 2:48.11 | 100687 | 113297 8 | 25:10.48 | 2:42.44 | 113298 | 125491 9 | 27:53.17 | 1:50.10 | 125492 | 133751 10 | 29:43.27 | 3:18.14 | 133752 | 148615 11 | 33:01.41 | 3:24.41 | 148616 | 163956 12 | 36:26.07 | 3:53.28 | 163957 | 181459 13 | 40:19.35 | 3:23.46 | 181460 | 196730 14 | 43:43.06 | 3:04.14 | 196731 | 210544 15 | 46:47.20 | 4:21.57 | 210545 | 230176 16 | 51:09.02 | 3:25.07 | 230177 | 245558 17 | 54:34.09 | 2:46.54 | 245559 | 258062

Track 1

Filename E:\Tommy Emmanuel - Endless Road - flac\01 - Endless Road.wav

Pre-gap length 0:00:02.00

Peak level 97.6 % Extraction speed 3.9 X Track quality 100.0 % Test CRC 7EF321FB Copy CRC 7EF321FB Accurately ripped (confidence 7) [0424A03A] (AR v1) Copy OK

Track 2

Filename E:\Tommy Emmanuel - Endless Road - flac\02 - Tall Fiddler.wav

Peak level 97.5 % Extraction speed 3.8 X Track quality 100.0 % Test CRC E7965D43 Copy CRC E7965D43 Accurately ripped (confidence 7) [14992FFD] (AR v1) Copy OK

Track 3

Filename E:\Tommy Emmanuel - Endless Road - flac\03 - (the man with the) Green Thumb.wav

Pre-gap length 0:00:02.65

Peak level 92.1 % Extraction speed 4.3 X Track quality 100.0 % Test CRC B35C44F2 Copy CRC B35C44F2 Accurately ripped (confidence 7) [3F117423] (AR v1) Copy OK

Track 4

Filename E:\Tommy Emmanuel - Endless Road - flac\04 - Bella Soave.wav

Pre-gap length 0:00:01.58

Peak level 97.3 % Extraction speed 4.3 X Track quality 100.0 % Test CRC 7C44BF1B Copy CRC 7C44BF1B Accurately ripped (confidence 7) [9D544FB4] (AR v1) Copy OK

Track 5

Filename E:\Tommy Emmanuel - Endless Road - flac\05 - Morning Aire.wav

Pre-gap length 0:00:01.65

Peak level 97.3 % Extraction speed 5.2 X Track quality 100.0 % Test CRC 1E6A1AC4 Copy CRC 1E6A1AC4 Accurately ripped (confidence 7) [92BF889E] (AR v1) Copy OK

Track 6

Filename E:\Tommy Emmanuel - Endless Road - flac\06 - Angelina.wav

Pre-gap length 0:00:01.50

Peak level 97.3 % Extraction speed 5.3 X Track quality 100.0 % Test CRC 0010199F Copy CRC 0010199F Accurately ripped (confidence 7) [052FE564] (AR v1) Copy OK

Track 7

Filename E:\Tommy Emmanuel - Endless Road - flac\07 - Windy & Warm.wav

Peak level 97.8 % Extraction speed 5.2 X Track quality 100.0 % Test CRC F1927C12 Copy CRC F1927C12 Accurately ripped (confidence 7) [31E1576B] (AR v1) Copy OK

Track 8

Filename E:\Tommy Emmanuel - Endless Road - flac\08 - Chet's Ramble.wav

Pre-gap length 0:00:00.41

Peak level 97.5 % Extraction speed 5.4 X Track quality 100.0 % Test CRC 6EF15701 Copy CRC 6EF15701 Accurately ripped (confidence 7) [7F2C3DB0] (AR v1) Copy OK

Track 9

Filename E:\Tommy Emmanuel - Endless Road - flac\09 - Son Of A Gun.wav

Pre-gap length 0:00:02.04

Peak level 94.0 % Extraction speed 5.1 X Track quality 100.0 % Test CRC 81B5CB9C Copy CRC 81B5CB9C Accurately ripped (confidence 7) [EC46C8A8] (AR v1) Copy OK

Track 10

Filename E:\Tommy Emmanuel - Endless Road - flac\10 - Sanitarium Shuffle.wav

Pre-gap length 0:00:02.24

Peak level 98.0 % Extraction speed 4.5 X Track quality 99.9 % Test CRC C1F6A4E0 Copy CRC C1F6A4E0 Accurately ripped (confidence 7) [D8C6813C] (AR v1) Copy OK

Track 11

Filename E:\Tommy Emmanuel - Endless Road - flac\11 - La Visita.wav

Pre-gap length 0:00:03.22

Peak level 97.2 % Extraction speed 6.1 X Track quality 100.0 % Test CRC E0365ECB Copy CRC E0365ECB Accurately ripped (confidence 7) [FECF573A] (AR v1) Copy OK

Track 12

Filename E:\Tommy Emmanuel - Endless Road - flac\12 - Mona Lisa.wav

Pre-gap length 0:00:02.24

Peak level 97.3 % Extraction speed 5.1 X Track quality 99.9 % Test CRC 33B213B1 Copy CRC 33B213B1 Accurately ripped (confidence 7) [FB7D05DA] (AR v1) Copy OK

Track 13

Filename E:\Tommy Emmanuel - Endless Road - flac\13 - Christmas Memories - Wheels.wav

Pre-gap length 0:00:00.17

Peak level 97.3 % Extraction speed 6.5 X Track quality 100.0 % Test CRC DE3FE45D Copy CRC DE3FE45D Accurately ripped (confidence 7) [90574F71] (AR v1) Copy OK

Track 14

Filename E:\Tommy Emmanuel - Endless Road - flac\14 - Old Town.wav

Pre-gap length 0:00:03.08

Peak level 97.4 % Extraction speed 6.6 X Track quality 100.0 % Test CRC 6BBC2F17 Copy CRC 6BBC2F17 Accurately ripped (confidence 7) [CADBE7D2] (AR v1) Copy OK

Track 15

Filename E:\Tommy Emmanuel - Endless Road - flac\15 - Somewhere Over The Rainbow.wav

Pre-gap length 0:00:01.20

Peak level 97.3 % Extraction speed 7.1 X Track quality 100.0 % Test CRC D72A620A Copy CRC D72A620A Accurately ripped (confidence 7) [A35868EE] (AR v1) Copy OK

Track 16

Filename E:\Tommy Emmanuel - Endless Road - flac\16 - I Still Can't Say Goodbye.wav

Pre-gap length 0:00:01.38

Peak level 97.3 % Extraction speed 7.0 X Track quality 100.0 % Test CRC CEC13AFB Copy CRC CEC13AFB Accurately ripped (confidence 7) [C82E3A30] (AR v1) Copy OK

Track 17

Filename E:\Tommy Emmanuel - Endless Road - flac\17 - Today Is Mine.wav

Pre-gap length 0:00:02.44

Peak level 72.4 % Extraction speed 6.9 X Track quality 100.0 % Test CRC F1B83CCC Copy CRC F1B83CCC Accurately ripped (confidence 7) [2CADC40F] (AR v1) Copy OK

All tracks accurately ripped

No errors occurred

End of status report

==== Log checksum F069A00299415B32E2A6ECDE809C792A82420C8B5932B208606E3265D16036AD ====
 
REM GENRE InstrumentalREM DATE 2004REM DISCID E80D7011REM COMMENT "ExactAudioCopy v1.0b3"FILE "01. Endless Road.flac" WAVE TRACK 01 AUDIO INDEX 01 00:00:00FILE "02. Tall Fiddler.flac" WAVE TRACK 02 AUDIO INDEX 01 00:00:00 TRACK 03 AUDIO INDEX 00 02:25:52FILE "03. (The Man With The) Green Thumb.flac" WAVE INDEX 01 00:00:00 TRACK 04 AUDIO INDEX 00 03:18:54FILE "04. Bella Soave.flac" WAVE INDEX 01 00:00:00 TRACK 05 AUDIO INDEX 00 02:20:43FILE "05. Morning Aire.flac" WAVE INDEX 01 00:00:00 TRACK 06 AUDIO INDEX 00 05:55:33FILE "06. Angelina.flac" WAVE INDEX 01 00:00:00FILE "07. Windy & Warm.flac" WAVE TRACK 07 AUDIO INDEX 01 00:00:00 TRACK 08 AUDIO INDEX 00 02:47:55FILE "08. Chet's Ramble.flac" WAVE INDEX 01 00:00:00 TRACK 09 AUDIO INDEX 00 02:40:41FILE "09. Son Of A Gun.flac" WAVE INDEX 01 00:00:00 TRACK 10 AUDIO INDEX 00 01:47:67FILE "10. Sanitarium Shuffle.flac" WAVE INDEX 01 00:00:00 TRACK 11 AUDIO INDEX 00 03:14:72FILE "11. La Visita.flac" WAVE INDEX 01 00:00:00 TRACK 12 AUDIO INDEX 00 03:22:23FILE "12. Mona Lisa.flac" WAVE INDEX 01 00:00:00 TRACK 13 AUDIO INDEX 00 03:53:15FILE "13. Christmas Memories - Wheels.flac" WAVE INDEX 01 00:00:00 TRACK 14 AUDIO INDEX 00 03:20:40FILE "14. Old Town.flac" WAVE INDEX 01 00:00:00 TRACK 15 AUDIO INDEX 00 03:02:74FILE "15. Somewhere Over The Rainbow.flac" WAVE INDEX 01 00:00:00 TRACK 16 AUDIO INDEX 00 04:20:28FILE "16. I Still Can't Say Goodbye.flac" WAVE INDEX 01 00:00:00 TRACK 17 AUDIO INDEX 00 03:22:49FILE "17. Today Is Mine.flac" WAVE INDEX 01 00:00:00
 
[CUETools log; Date: 19.01.2012 10:35:00; Version: 2.0.9][CTDB TOCID: i0.BHSZWDfZLJCAa7AQTen8uqDE-] disk not present in database.[AccurateRip ID: 0023d502-01c327d8-e80d7011] found.Track [ CRC ] Status 01 [0424a03a] (7/7) Accurately ripped 02 [14992ffd] (7/7) Accurately ripped 03 [3f117423] (7/7) Accurately ripped 04 [9d544fb4] (7/7) Accurately ripped 05 [92bf889e] (7/7) Accurately ripped 06 [052fe564] (7/7) Accurately ripped 07 [31e1576b] (7/7) Accurately ripped 08 [7f2c3db0] (7/7) Accurately ripped 09 [ec46c8a8] (7/7) Accurately ripped 10 [d8c6813c] (7/7) Accurately ripped 11 [fecf573a] (7/7) Accurately ripped 12 [fb7d05da] (7/7) Accurately ripped 13 [90574f71] (7/7) Accurately ripped 14 [cadbe7d2] (7/7) Accurately ripped 15 [a35868ee] (7/7) Accurately ripped 16 [c82e3a30] (7/7) Accurately ripped 17 [2cadc40f] (7/7) Accurately ripped

Track Peak [ CRC32 ] [W/O NULL] [ LOG ] -- 98,0 [594FCEBE] [C6DE31E8] 01 97,6 [7EF321FB] [B2E30396] CRC32 02 97,5 [E7965D43] [CB2C00ED] CRC32 03 92,1 [B35C44F2] [6B765498] CRC32 04 97,3 [7C44BF1B] [DC6E27D6] CRC32 05 97,3 [1E6A1AC4] [E4ACAF86] CRC32 06 97,3 [0010199F] [E57B7C9E] CRC32 07 97,8 [F1927C12] [C1358BCA] CRC32 08 97,5 [6EF15701] [41D4193D] CRC32 09 94,0 [81B5CB9C] [3B75AFD4] CRC32 10 98,0 [C1F6A4E0] [E6EF46D5] CRC32 11 97,2 [E0365ECB] [E83C2E73] CRC32 12 97,3 [33B213B1] [63AC1DB1] CRC32 13 97,3 [DE3FE45D] [DD81F130] CRC32 14 97,4 [6BBC2F17] [B32766B1] CRC32 15 97,3 [D72A620A] [40273588] CRC32 16 97,3 [CEC13AFB] [23041AC4] CRC32 17 72,4 [F1B83CCC] [FC0D2591] CRC32


Трекер:  [ 27-Янв-2012 16:03 ]

  

Скачать .torrent

Размер .torrent файла 14 KB


Размер: 329 MB
Хэш (hash) релиза: 289cfdbe0296d14bf2ad2de804232c99cba16e82

Еще никто не оставлял запись к записи скачать торрент Tommy Emmanuel - Endless Road - 2005, FLAC . Будь первым!

!Обратная связь