Скачать через торрент музыку Sonny Rollins - G-Man - 1987, FLAC бесплатно без регистрации torrent

Если у вас наблюдаются проблемы со скриншотами, переходом по ссылками, скачиванием торрентов - проблемы в блокировщике рекламы AdBlock. #хорошегоДня!


Статистика раздачи
Размер:  287 MB   |    Зарегистрирован:  5 лет 8 месяцев   |    .torrent скачан:  26 раз   |   
Раздают:  1  
   
Загрузка...
 
Автор Сообщение

Umakiro

avatar Umakiro


Sonny Rollins – G-Man

Жанр: Hard Bop
Год издания диска: 1987
Издатель (лейбл): Milestone
Номер по каталогу: 025218915021
Аудиокодек: FLAC (*.flac)
Тип рипа: tracks+.cue
Битрейт аудио: lossless
Продолжительность: 44:45
Rip by Sarchiapone
Наличие сканов в содержимом раздачи: да

Треклист:
01. G-Man (15:23)
02. Kim (6:00)
03. Don't Stop The Carnival (11:21)
04. Tenor Madness (12:02)

Personnel:
Sonny Rollins - ts
Clifton Anderson - tb
Mark Soskin - p
Bob Cranshaw - b
Marvin 'Smitty' Smith - d
 
 
Exact Audio Copy V0.99 prebeta 4 from 23. January 2008

EAC extraction logfile from 25. January 2009, 0:29

Sonny Rollins / G-Man

Used drive : PLEXTOR CD-R PREMIUM2 Adapter: 1 ID: 1

Read mode : SecureUtilize accurate stream : YesDefeat audio cache : YesMake use of C2 pointers : No

Read offset correction : 30Overread into Lead-In and Lead-Out : YesFill up missing offset samples with silence : YesDelete leading and trailing silent blocks : NoNull samples used in CRC calculations : YesUsed interface : Installed external ASPI interfaceGap handling : Appended to previous track

Used output format : User Defined EncoderSelected bitrate : 32 kBit/sQuality : HighAdd ID3 tag : NoCommand line compressor : C:\Programmi\FLAC\flac.exeAdditional command line options : -8 -V -T "ARTIST=%a" -T "TITLE=%t" -T "ALBUM=%g" -T "DATE=%y" -T "TRACKNUMBER=%n" -T "GENRE=%m" -T "COMMENT=EAC FLAC -8" %s

TOC of the extracted CD

Track | Start | Length | Start sector | End sector --------------------------------------------------------- 1 | 0:00.00 | 15:22.60 | 0 | 69209 2 | 15:22.60 | 5:59.58 | 69210 | 96192 3 | 21:22.43 | 11:20.50 | 96193 | 147242 4 | 32:43.18 | 12:02.00 | 147243 | 201392

Track 1

Filename D:\My Rip\01 - G-Man.wav

Pre-gap length 0:00:02.00

Peak level 82.0 % Track quality 99.9 % Test CRC 16FE80B3 Copy CRC 16FE80B3 Track not present in AccurateRip database Copy OK

Track 2

Filename D:\My Rip\02 - Kim.wav

Pre-gap length 0:00:02.80

Peak level 60.4 % Track quality 100.0 % Test CRC CC0A8EA9 Copy CRC CC0A8EA9 Track not present in AccurateRip database Copy OK

Track 3

Filename D:\My Rip\03 - Don't Stop The Carnival.wav

Pre-gap length 0:00:02.64

Peak level 94.7 % Track quality 100.0 % Test CRC 38E80097 Copy CRC 38E80097 Track not present in AccurateRip database Copy OK

Track 4

Filename D:\My Rip\04 - Tenor Madness.wav

Pre-gap length 0:00:02.40

Peak level 92.7 % Track quality 100.0 % Test CRC 6D64B8E2 Copy CRC 6D64B8E2 Track not present in AccurateRip database Copy OK

None of the tracks are present in the AccurateRip database

No errors occurred

End of status report
 
REM GENRE JazzREM DATE 1986REM DISCID 350A7D04REM COMMENT "ExactAudioCopy v0.99pb4"PERFORMER "Sonny Rollins"TITLE "G-Man"FILE "01 - G-Man.flac" WAVE TRACK 01 AUDIO TITLE "G-Man" PERFORMER "Sonny Rollins" INDEX 01 00:00:00 TRACK 02 AUDIO TITLE "Kim" PERFORMER "Sonny Rollins" INDEX 00 15:20:00FILE "02 - Kim.flac" WAVE INDEX 01 00:00:00 TRACK 03 AUDIO TITLE "Don't Stop The Carnival" PERFORMER "Sonny Rollins" INDEX 00 05:57:10FILE "03 - Don't Stop The Carnival.flac" WAVE INDEX 01 00:00:00 TRACK 04 AUDIO TITLE "Tenor Madness" PERFORMER "Sonny Rollins" INDEX 00 11:18:20FILE "04 - Tenor Madness.flac" WAVE INDEX 01 00:00:00
 
[CUETools log; Date: 19.01.2012 11:58:43; Version: 2.0.9][CTDB TOCID: chFdTbgdslT0Ae5a285i7yqUCw8-] found. [ CTDBID ] Status [b7be16a4] (3/3) Accurately ripped[AccurateRip ID: 0007d7f7-001ede19-350a7d04] found.Track [ CRC ] Status 01 [b79f8954] (0/3) No match 02 [527a1499] (0/3) No match 03 [744a2bb9] (0/3) No match 04 [3a4eb15b] (0/3) No matchOffsetted by 664: 01 [6e49f778] (3/3) Accurately ripped 02 [62099989] (3/3) Accurately ripped 03 [360a2f9e] (3/3) Accurately ripped 04 [52888e6d] (3/3) Accurately ripped

Track Peak [ CRC32 ] [W/O NULL] [ LOG ] -- 94,7 [868CA718] [356BF5A1] 01 82,0 [16FE80B3] [F86D4D45] CRC32 02 60,4 [CC0A8EA9] [AF79D769] CRC32 03 94,7 [38E80097] [0F1907CF] CRC32 04 92,7 [6D64B8E2] [6715A653] CRC32


Трекер:  [ 27-Янв-2012 16:02 ]

  

Скачать .torrent

Размер .torrent файла 12 KB


Размер: 287 MB
Хэш (hash) релиза: d37afac8fe21f12c32d611028a019ddd663294c8

Еще никто не оставлял запись к записи скачать торрент Sonny Rollins - G-Man - 1987, FLAC . Будь первым!

!Обратная связь