Скачать через торрент музыку Sonny Rollins - Heres To The People - 1991, FLAC бесплатно без регистрации torrent

Если у вас наблюдаются проблемы со скриншотами, переходом по ссылками, скачиванием торрентов - проблемы в блокировщике рекламы AdBlock. #хорошегоДня!


Статистика раздачи
Размер:  323 MB   |    Зарегистрирован:  5 лет 8 месяцев   |    .torrent скачан:  31 раз   |   
Раздают:  1  
   
Загрузка...
 
Автор Сообщение

Umakiro

avatar Umakiro


Sonny Rollins – Here's To The People

Жанр: Post-Bop, Hard Bop
Год издания диска: 1991
Издатель (лейбл): Milestone
Номер по каталогу: 025218919425
Аудиокодек: FLAC (*.flac)
Тип рипа: tracks+.cue
Битрейт аудио: lossless
Продолжительность: 54:42
Rip by Sarchiapone
Наличие сканов в содержимом раздачи: да

Треклист:
01. Why Was I Born (6:36)
02. I Wish I Knew (7:45)
03. Here's To The People (7:59)
04. Doc Phil (5:16)
05. Someone To Watch Over Me (9:39)
06. Young Roy (6:39)
07. Lucky Day (5:13)
08. Long Ago And Far Away (5:35)

Personnel:
Sonny Rollins - ts
Roy Hargrove - tp
Clifton Anderson - tb
Mark Soskin - p
Jerome Harris - el-g
Bob Cranshaw - el-b
Steve Jordan , Jack DeJohnette, Al Foster - d

Rec.: Clinton Recording Studios, NYC, NY, August 10, 17, 24 & 27, 1991.
 
 
Exact Audio Copy V0.99 prebeta 4 from 23. January 2008

EAC extraction logfile from 26. January 2009, 20:02

Sonny Rollins / Here's To The People

Used drive : PLEXTOR CD-R PREMIUM2 Adapter: 1 ID: 1

Read mode : SecureUtilize accurate stream : YesDefeat audio cache : YesMake use of C2 pointers : No

Read offset correction : 30Overread into Lead-In and Lead-Out : YesFill up missing offset samples with silence : YesDelete leading and trailing silent blocks : NoNull samples used in CRC calculations : YesUsed interface : Installed external ASPI interfaceGap handling : Appended to previous track

Used output format : User Defined EncoderSelected bitrate : 32 kBit/sQuality : HighAdd ID3 tag : NoCommand line compressor : C:\Programmi\FLAC\flac.exeAdditional command line options : -8 -V -T "ARTIST=%a" -T "TITLE=%t" -T "ALBUM=%g" -T "DATE=%y" -T "TRACKNUMBER=%n" -T "GENRE=%m" -T "COMMENT=EAC FLAC -8" %s

TOC of the extracted CD

Track | Start | Length | Start sector | End sector --------------------------------------------------------- 1 | 0:00.00 | 6:36.05 | 0 | 29704 2 | 6:36.05 | 7:45.35 | 29705 | 64614 3 | 14:21.40 | 7:58.67 | 64615 | 100531 4 | 22:20.32 | 5:16.10 | 100532 | 124241 5 | 27:36.42 | 9:38.55 | 124242 | 167646 6 | 37:15.22 | 6:39.03 | 167647 | 197574 7 | 43:54.25 | 5:13.05 | 197575 | 221054 8 | 49:07.30 | 5:34.67 | 221055 | 246171

Track 1

Filename D:\My Rip\01 - Why Was I Born.wav

Pre-gap length 0:00:02.00

Peak level 95.1 % Track quality 100.0 % Test CRC 2BE8F888 Copy CRC 2BE8F888 Cannot be verified as accurate (confidence 2) [D06A7EB5], AccurateRip returned [BC5EAA27] Copy OK

Track 2

Filename D:\My Rip\02 - I Wish I Knew.wav

Pre-gap length 0:00:01.73

Peak level 98.4 % Track quality 100.0 % Test CRC 60239B71 Copy CRC 60239B71 Cannot be verified as accurate (confidence 2) [0A462DC5], AccurateRip returned [AE3AD6A4] Copy OK

Track 3

Filename D:\My Rip\03 - Here's To The People.wav

Pre-gap length 0:00:01.33

Peak level 82.7 % Track quality 100.0 % Test CRC 5DCEFD94 Copy CRC 5DCEFD94 Cannot be verified as accurate (confidence 2) [F819344B], AccurateRip returned [23DCD35E] Copy OK

Track 4

Filename D:\My Rip\04 - Doc Phil.wav

Pre-gap length 0:00:02.56

Peak level 89.1 % Track quality 99.9 % Test CRC 1BE6B2B6 Copy CRC 1BE6B2B6 Cannot be verified as accurate (confidence 2) [B0D1861F], AccurateRip returned [14AF3F24] Copy OK

Track 5

Filename D:\My Rip\05 - Someone To Watch Over Me.wav

Pre-gap length 0:00:01.86

Peak level 93.0 % Track quality 100.0 % Test CRC 85C83E06 Copy CRC 85C83E06 Cannot be verified as accurate (confidence 2) [C9D6A700], AccurateRip returned [FEFD6B7D] Copy OK

Track 6

Filename D:\My Rip\06 - Young Roy.wav

Pre-gap length 0:00:00.16

Peak level 81.6 % Track quality 100.0 % Test CRC BC04C037 Copy CRC BC04C037 Cannot be verified as accurate (confidence 2) [577D3935], AccurateRip returned [D44F1371] Copy OK

Track 7

Filename D:\My Rip\07 - Lucky Day.wav

Pre-gap length 0:00:02.30

Peak level 92.8 % Track quality 100.0 % Test CRC DCBAA7CD Copy CRC DCBAA7CD Cannot be verified as accurate (confidence 2) [21565E64], AccurateRip returned [3EDADE9A] Copy OK

Track 8

Filename D:\My Rip\08 - Long Ago And Far Away.wav

Pre-gap length 0:00:02.04

Peak level 96.3 % Track quality 100.0 % Test CRC 3666A90F Copy CRC 3666A90F Cannot be verified as accurate (confidence 2) [B77AF714], AccurateRip returned [07B48A0D] Copy OK

No tracks could be verified as accurateYou may have a different pressing from the one(s) in the database

No errors occurred

End of status report
 
REM GENRE JazzREM DATE 1991REM DISCID 7C0CD208REM COMMENT "ExactAudioCopy v0.99pb4"PERFORMER "Sonny Rollins"TITLE "Here's To The People"FILE "01 - Why Was I Born.flac" WAVE TRACK 01 AUDIO TITLE "Why Was I Born" PERFORMER "Sonny Rollins" INDEX 01 00:00:00 TRACK 02 AUDIO TITLE "I Wish I Knew" PERFORMER "Sonny Rollins" INDEX 00 06:34:25FILE "02 - I Wish I Knew.flac" WAVE INDEX 01 00:00:00 TRACK 03 AUDIO TITLE "Here's To The People" PERFORMER "Sonny Rollins" INDEX 00 07:44:10FILE "03 - Here's To The People.flac" WAVE INDEX 01 00:00:00 TRACK 04 AUDIO TITLE "Doc Phil" PERFORMER "Sonny Rollins" INDEX 00 07:56:25FILE "04 - Doc Phil.flac" WAVE INDEX 01 00:00:00 TRACK 05 AUDIO TITLE "Someone To Watch Over Me" PERFORMER "Sonny Rollins" INDEX 00 05:14:20FILE "05 - Someone To Watch Over Me.flac" WAVE INDEX 01 00:00:00 TRACK 06 AUDIO TITLE "Young Roy" PERFORMER "Sonny Rollins" INDEX 00 09:38:43FILE "06 - Young Roy.flac" WAVE INDEX 01 00:00:00 TRACK 07 AUDIO TITLE "Lucky Day" PERFORMER "Sonny Rollins" INDEX 00 06:36:55FILE "07 - Lucky Day.flac" WAVE INDEX 01 00:00:00 TRACK 08 AUDIO TITLE "Long Ago And Far Away" PERFORMER "Sonny Rollins" INDEX 00 05:11:02FILE "08 - Long Ago And Far Away.flac" WAVE INDEX 01 00:00:00
 
[CUETools log; Date: 19.01.2012 12:19:16; Version: 2.0.9][CTDB TOCID: krupRoj0RJs_ziVunJLodaPeQwc-] disk not present in database.[AccurateRip ID: 00119237-0074b8d1-7c0cd208] found.Track [ CRC ] Status 01 [d06a7eb5] (0/9) No match 02 [0a462dc5] (0/9) No match 03 [f819344b] (0/9) No match 04 [b0d1861f] (0/9) No match 05 [c9d6a700] (0/9) No match 06 [577d3935] (0/9) No match 07 [21565e64] (0/9) No match 08 [b77af714] (0/9) No matchOffsetted by 664: 01 [bc5eaa27] (9/9) Accurately ripped 02 [ae3ad6a4] (9/9) Accurately ripped 03 [23dcd35e] (9/9) Accurately ripped 04 [14af3f24] (9/9) Accurately ripped 05 [fefd6b7d] (9/9) Accurately ripped 06 [d44f1371] (9/9) Accurately ripped 07 [3edade9a] (9/9) Accurately ripped 08 [07b48a0d] (9/9) Accurately ripped

Track Peak [ CRC32 ] [W/O NULL] [ LOG ] -- 98,4 [2A4927A5] [51D1FDC7] 01 95,1 [2BE8F888] [ED9F9271] CRC32 02 98,4 [60239B71] [6B90B1EB] CRC32 03 82,7 [5DCEFD94] [4BEEA70A] CRC32 04 89,1 [1BE6B2B6] [20CE95B0] CRC32 05 93,0 [85C83E06] [38090ED8] CRC32 06 81,6 [BC04C037] [F228F96F] CRC32 07 92,8 [DCBAA7CD] [2FCF9D79] CRC32 08 96,3 [3666A90F] [A21EBB4F] CRC32


Трекер:  [ 27-Янв-2012 16:02 ]

  

Скачать .torrent

Размер .torrent файла 14 KB


Размер: 323 MB
Хэш (hash) релиза: 09f734053449707e8703104553a08e0803b733d8

Еще никто не оставлял запись к записи скачать торрент Sonny Rollins - Heres To The People - 1991, FLAC . Будь первым!

!Обратная связь