Скачать через торрент музыку Sonny Rollins - No Problem бесплатно без регистрации torrent

Если у вас наблюдаются проблемы со скриншотами, переходом по ссылками, скачиванием торрентов - проблемы в блокировщике рекламы AdBlock. #хорошегоДня!


Статистика раздачи
Размер:  233 MB   |    Зарегистрирован:  5 лет 8 месяцев   |    .torrent скачан:  34 раза   |   
Раздают:  1  
   
Загрузка...
 
Автор Сообщение

Umakiro

avatar Umakiro


Sonny Rollins – No Problem (1981)

Жанр: Post-Bop, Hard Bop
Год издания диска: 1999
Издатель (лейбл): OJC/Milestone
UPC Code: 025218701426
Аудиокодек: FLAC (*.flac)
Тип рипа: tracks+.cue
Битрейт аудио: lossless
Продолжительность: 36:33
Rip by Sarchiapone
Наличие сканов в содержимом раздачи: да

Треклист:
01. No Problem (7:43)
02. Here You Come Again (5:36)
03. Jo Jo (5:08)
04. Coconut Bread (4:29)
05. Penny Saved (5:46)
06. Illusions (2:16)
07. Joyous Lake (5:34)

Personnel:
Sonny Rollins - ts
Bobby Broom - el-g
Bobby Hutcherson - vib
Bob Cranshaw - el-b
Tony Williams - d

Rec.: Fantasy Studios, Berkeley, CA, December 9-15, 1981.
 
 
Exact Audio Copy V0.99 prebeta 4 from 23. January 2008

EAC extraction logfile from 26. January 2009, 13:49

Sonny Rollins / No Problem

Used drive : PLEXTOR CD-R PREMIUM2 Adapter: 1 ID: 1

Read mode : SecureUtilize accurate stream : YesDefeat audio cache : YesMake use of C2 pointers : No

Read offset correction : 30Overread into Lead-In and Lead-Out : YesFill up missing offset samples with silence : YesDelete leading and trailing silent blocks : NoNull samples used in CRC calculations : YesUsed interface : Installed external ASPI interfaceGap handling : Appended to previous track

Used output format : User Defined EncoderSelected bitrate : 32 kBit/sQuality : HighAdd ID3 tag : NoCommand line compressor : C:\Programmi\FLAC\flac.exeAdditional command line options : -8 -V -T "ARTIST=%a" -T "TITLE=%t" -T "ALBUM=%g" -T "DATE=%y" -T "TRACKNUMBER=%n" -T "GENRE=%m" -T "COMMENT=EAC FLAC -8" %s

TOC of the extracted CD

Track | Start | Length | Start sector | End sector --------------------------------------------------------- 1 | 0:00.00 | 7:43.05 | 0 | 34729 2 | 7:43.05 | 5:36.00 | 34730 | 59929 3 | 13:19.05 | 5:08.17 | 59930 | 83046 4 | 18:27.22 | 4:29.03 | 83047 | 103224 5 | 22:56.25 | 5:46.05 | 103225 | 129179 6 | 28:42.30 | 2:16.37 | 129180 | 139416 7 | 30:58.67 | 5:34.15 | 139417 | 164481

Track 1

Filename D:\My Rip\01 - No Problem.wav

Pre-gap length 0:00:02.00

Peak level 99.9 % Track quality 100.0 % Test CRC C5FE54FA Copy CRC C5FE54FA Track not present in AccurateRip database Copy OK

Track 2

Filename D:\My Rip\02 - Here You Come Again.wav

Pre-gap length 0:00:01.86

Peak level 86.7 % Track quality 100.0 % Test CRC 5B50125A Copy CRC 5B50125A Track not present in AccurateRip database Copy OK

Track 3

Filename D:\My Rip\03 - Jo Jo.wav

Pre-gap length 0:00:01.77

Peak level 91.2 % Track quality 100.0 % Test CRC 9DB074F6 Copy CRC 9DB074F6 Track not present in AccurateRip database Copy OK

Track 4

Filename D:\My Rip\04 - Coconut Bread.wav

Pre-gap length 0:00:01.66

Peak level 99.3 % Track quality 100.0 % Test CRC 463A0F76 Copy CRC 463A0F76 Track not present in AccurateRip database Copy OK

Track 5

Filename D:\My Rip\05 - Penny Saved.wav

Pre-gap length 0:00:03.61

Peak level 99.8 % Track quality 100.0 % Test CRC BC834B3E Copy CRC BC834B3E Track not present in AccurateRip database Copy OK

Track 6

Filename D:\My Rip\06 - Illusions.wav

Pre-gap length 0:00:03.44

Peak level 67.3 % Track quality 99.9 % Test CRC E9B5CF79 Copy CRC E9B5CF79 Track not present in AccurateRip database Copy OK

Track 7

Filename D:\My Rip\07 - Joyous Lake.wav

Pre-gap length 0:00:02.40

Peak level 99.9 % Track quality 100.0 % Test CRC 028B7D97 Copy CRC 028B7D97 Track not present in AccurateRip database Copy OK

None of the tracks are present in the AccurateRip database

No errors occurred

End of status report
 
REM GENRE JazzREM DATE 1981REM DISCID 55089107REM COMMENT "ExactAudioCopy v0.99pb4"PERFORMER "Sonny Rollins"TITLE "No Problem"FILE "01 - No Problem.flac" WAVE TRACK 01 AUDIO TITLE "No Problem" PERFORMER "Sonny Rollins" INDEX 01 00:00:00 TRACK 02 AUDIO TITLE "Here You Come Again" PERFORMER "Sonny Rollins" INDEX 00 07:41:15FILE "02 - Here You Come Again.flac" WAVE INDEX 01 00:00:00 TRACK 03 AUDIO TITLE "Jo Jo" PERFORMER "Sonny Rollins" INDEX 00 05:34:17FILE "03 - Jo Jo.flac" WAVE INDEX 01 00:00:00 TRACK 04 AUDIO TITLE "Coconut Bread" PERFORMER "Sonny Rollins" INDEX 00 05:06:42FILE "04 - Coconut Bread.flac" WAVE INDEX 01 00:00:00 TRACK 05 AUDIO TITLE "Penny Saved" PERFORMER "Sonny Rollins" INDEX 00 04:25:32FILE "05 - Penny Saved.flac" WAVE INDEX 01 00:00:00 TRACK 06 AUDIO TITLE "Illusions" PERFORMER "Sonny Rollins" INDEX 00 05:42:47FILE "06 - Illusions.flac" WAVE INDEX 01 00:00:00 TRACK 07 AUDIO TITLE "Joyous Lake" PERFORMER "Sonny Rollins" INDEX 00 02:14:07FILE "07 - Joyous Lake.flac" WAVE INDEX 01 00:00:00
 
[CUETools log; Date: 19.01.2012 13:00:37; Version: 2.0.9][CTDB TOCID: sxQUdW3yAkFn7ZyFiz3Zd.WHO1g-] found. [ CTDBID ] Status [fc9fc69d] (6/6) Accurately ripped[AccurateRip ID: 000ae51b-003f8b43-55089107] found.Track [ CRC ] Status 01 [10a1c423] (4/7) Accurately ripped 02 [087eb5b9] (4/7) Accurately ripped 03 [f6a3ae56] (3/6) Accurately ripped 04 [217e7cb5] (4/7) Accurately ripped 05 [b74a2106] (4/7) Accurately ripped 06 [9c99bac3] (4/7) Accurately ripped 07 [1dda2795] (4/7) Accurately rippedOffsetted by 664: 01 [749dabeb] (3/7) Accurately ripped 02 [cc07adb8] (3/7) Accurately ripped 03 [ee5859bc] (3/6) Accurately ripped 04 [a6564631] (3/7) Accurately ripped 05 [adef6e3c] (3/7) Accurately ripped 06 [1a5e1232] (3/7) Accurately ripped 07 [ba262887] (3/7) Accurately ripped

Track Peak [ CRC32 ] [W/O NULL] [ LOG ] -- 99,9 [A479BC71] [272092BB] 01 99,9 [C5FE54FA] [5563CFEB] CRC32 02 86,7 [5B50125A] [FFB7F70C] CRC32 03 91,2 [9DB074F6] [38674094] CRC32 04 99,3 [463A0F76] [48262644] CRC32 05 99,8 [BC834B3E] [7AE060F8] CRC32 06 67,3 [E9B5CF79] [154A4C21] CRC32 07 99,9 [028B7D97] [4BDFF350] CRC32


Трекер:  [ 27-Янв-2012 16:01 ]

  

Скачать .torrent

Размер .torrent файла 20 KB


Размер: 233 MB
Хэш (hash) релиза: 345e5a5a04f4afd4d253636a4d55fa1f21b5f4b6

Еще никто не оставлял запись к записи скачать торрент Sonny Rollins - No Problem . Будь первым!

!Обратная связь