Скачать через торрент музыку Sonny Rollins - The Bridge бесплатно без регистрации torrent

Если у вас наблюдаются проблемы со скриншотами, переходом по ссылками, скачиванием торрентов - проблемы в блокировщике рекламы AdBlock. #хорошегоДня!


Статистика раздачи
Размер:  261 MB   |    Зарегистрирован:  5 лет 8 месяцев   |    .torrent скачан:  35 раз   |   
Раздают:  1  
   
Загрузка...
 
Автор Сообщение

Umakiro

avatar Umakiro


Sonny Rollins – The Bridge (1962)

Жанр: Post-Bop
Год издания диска: 2000
Издатель (лейбл): BMG/RCA Victor
UPC Code: 743217962524
Аудиокодек: FLAC (*.flac)
Тип рипа: tracks+.cue
Битрейт аудио: lossless
Продолжительность: 40:39
Rip by Sarchiapone
Наличие сканов в содержимом раздачи: да

Треклист:
01. Without A Song (7:28)
02. Where Are You (5:10)
03. John S (7:44)
04. The Bridge (6:00)
05. God Bless The Child (7:28)
06. You Do Something To Me (6:49)

Personnel:
Sonny Rollins - ts
Jim Hall - g
Bob Cranshaw - b
Ben Raily (1-4, 6), Harry T.Saunders (5) - d

Rec.: RCA Victor's Studio "B", NYC, NY, January 30 (#5), February 13 (#2, 3, 6) & 14 (#1, 4), 1962.
 
 
Exact Audio Copy V0.99 prebeta 4 from 23. January 2008

EAC extraction logfile from 25. January 2009, 15:31

Sonny Rollins / The Bridge

Used drive : PLEXTOR CD-R PREMIUM2 Adapter: 1 ID: 1

Read mode : SecureUtilize accurate stream : YesDefeat audio cache : YesMake use of C2 pointers : No

Read offset correction : 30Overread into Lead-In and Lead-Out : YesFill up missing offset samples with silence : YesDelete leading and trailing silent blocks : NoNull samples used in CRC calculations : YesUsed interface : Installed external ASPI interfaceGap handling : Appended to previous track

Used output format : User Defined EncoderSelected bitrate : 32 kBit/sQuality : HighAdd ID3 tag : NoCommand line compressor : C:\Programmi\FLAC\flac.exeAdditional command line options : -8 -V -T "ARTIST=%a" -T "TITLE=%t" -T "ALBUM=%g" -T "DATE=%y" -T "TRACKNUMBER=%n" -T "GENRE=%m" -T "COMMENT=EAC FLAC -8" %s

TOC of the extracted CD

Track | Start | Length | Start sector | End sector --------------------------------------------------------- 1 | 0:00.32 | 7:28.33 | 32 | 33664 2 | 7:28.65 | 5:10.17 | 33665 | 56931 3 | 12:39.07 | 7:43.45 | 56932 | 91701 4 | 20:22.52 | 6:00.18 | 91702 | 118719 5 | 26:22.70 | 7:27.65 | 118720 | 152309 6 | 33:50.60 | 6:48.47 | 152310 | 182956

Track 1

Filename D:\My Rip\01 - Without A Song.wav

Pre-gap length 0:00:02.42

Peak level 98.7 % Track quality 100.0 % Test CRC 4E5571D9 Copy CRC 4E5571D9 Accurately ripped (confidence 4) [8B5AD12D] Copy OK

Track 2

Filename D:\My Rip\02 - Where Are You.wav

Pre-gap length 0:00:02.00

Peak level 100.0 % Track quality 100.0 % Test CRC E88D681C Copy CRC E88D681C Accurately ripped (confidence 4) [066BAED8] Copy OK

Track 3

Filename D:\My Rip\03 - John S.wav

Pre-gap length 0:00:01.98

Peak level 100.0 % Track quality 100.0 % Test CRC 333841CB Copy CRC 333841CB Accurately ripped (confidence 4) [C1A91B8D] Copy OK

Track 4

Filename D:\My Rip\04 - The Bridge.wav

Pre-gap length 0:00:01.98

Peak level 100.0 % Track quality 100.0 % Test CRC 4CBC69CA Copy CRC 4CBC69CA Accurately ripped (confidence 4) [899A1B49] Copy OK

Track 5

Filename D:\My Rip\05 - God Bless The Child.wav

Pre-gap length 0:00:02.00

Peak level 99.2 % Track quality 100.0 % Test CRC 3F3440ED Copy CRC 3F3440ED Accurately ripped (confidence 4) [A4440D7B] Copy OK

Track 6

Filename D:\My Rip\06 - You Do Something To Me.wav

Pre-gap length 0:00:02.00

Peak level 96.1 % Track quality 100.0 % Test CRC 1CF09AD8 Copy CRC 1CF09AD8 Accurately ripped (confidence 4) [F0B22519] Copy OK

All tracks accurately ripped

No errors occurred

End of status report
 
REM GENRE JazzREM DATE 1962REM DISCID 3B098706REM COMMENT "ExactAudioCopy v0.99pb4"PERFORMER "Sonny Rollins"TITLE "The Bridge"FILE "01 - Without A Song.flac" WAVE TRACK 01 AUDIO TITLE "Without A Song" PERFORMER "Sonny Rollins" PREGAP 00:00:32 INDEX 01 00:00:00 TRACK 02 AUDIO TITLE "Where Are You" PERFORMER "Sonny Rollins" INDEX 00 07:26:33FILE "02 - Where Are You.flac" WAVE INDEX 01 00:00:00 TRACK 03 AUDIO TITLE "John S" PERFORMER "Sonny Rollins" INDEX 00 05:08:18FILE "03 - John S.flac" WAVE INDEX 01 00:00:00 TRACK 04 AUDIO TITLE "The Bridge" PERFORMER "Sonny Rollins" INDEX 00 07:41:46FILE "04 - The Bridge.flac" WAVE INDEX 01 00:00:00 TRACK 05 AUDIO TITLE "God Bless The Child" PERFORMER "Sonny Rollins" INDEX 00 05:58:18FILE "05 - God Bless The Child.flac" WAVE INDEX 01 00:00:00 TRACK 06 AUDIO TITLE "You Do Something To Me" PERFORMER "Sonny Rollins" INDEX 00 07:25:65FILE "06 - You Do Something To Me.flac" WAVE INDEX 01 00:00:00
 
[CUETools log; Date: 19.01.2012 13:40:09; Version: 2.0.9]Pregap length 00:00:32.[CTDB TOCID: Y.WBqcSGSyht5hgKS9pZh9jb6SQ-] disk not present in database.[AccurateRip ID: 0009b59e-0033c665-3b098706] found.Track [ CRC ] Status 01 [8b5ad12d] (10/15) Accurately ripped 02 [066baed8] (10/15) Accurately ripped 03 [c1a91b8d] (10/16) Accurately ripped 04 [899a1b49] (10/16) Accurately ripped 05 [a4440d7b] (10/16) Accurately ripped 06 [f0b22519] (10/15) Accurately rippedOffsetted by 679: 01 [9adbbb3d] (05/15) Accurately ripped 02 [99add003] (05/15) Accurately ripped 03 [f21d96e4] (06/16) Accurately ripped 04 [a9230918] (06/16) Accurately ripped 05 [2f4febb8] (06/16) Accurately ripped 06 [90049466] (05/15) Accurately ripped

Track Peak [ CRC32 ] [W/O NULL] [ LOG ] -- 100,0 [30901700] [05A32BCD] 01 98,7 [4E5571D9] [39E2063C] CRC32 02 100,0 [E88D681C] [A398FD85] CRC32 03 100,0 [333841CB] [08746FE3] CRC32 04 100,0 [4CBC69CA] [FDF3F6C9] CRC32 05 99,2 [3F3440ED] [2F3298E8] CRC32 06 96,1 [1CF09AD8] [08CB305B] CRC32


Трекер:  [ 27-Янв-2012 16:01 ]

  

Скачать .torrent

Размер .torrent файла 12 KB


Размер: 261 MB
Хэш (hash) релиза: 8a6fc2f2aefe333c8ca9bb1595ad65b5dbb28d35

Еще никто не оставлял запись к записи скачать торрент Sonny Rollins - The Bridge . Будь первым!

!Обратная связь