Скачать через торрент музыку Sonny Rollins - Sonny Boy бесплатно без регистрации torrent

Если у вас наблюдаются проблемы со скриншотами, переходом по ссылками, скачиванием торрентов - проблемы в блокировщике рекламы AdBlock. #хорошегоДня!


Статистика раздачи
Размер:  239 MB   |    Зарегистрирован:  5 лет 8 месяцев   |    .torrent скачан:  35 раз   |   
Раздают:  1  
   
Загрузка...
 
Автор Сообщение

Umakiro

avatar Umakiro


Sonny Rollins – Sonny Boy (1956)

Жанр: Post-Bop
Год издания диска: 1989
Издатель (лейбл): OJC/Prestige
UPC Code: 025218634823
Аудиокодек: FLAC (*.flac)
Тип рипа: tracks+.cue
Битрейт аудио: lossless
Продолжительность: 39:15
Rip by Sarchiapone
Наличие сканов в содержимом раздачи: да

Треклист:
01. EE-AH (6:56)
02. B.QUICK (9:14)
03. B.SWIFT (5:19)
04. The House I Live In (9:25)
05. Sonny Boy (8:22)

Personnel:
Sonny Rollins - ts
Kenny Dorham - tp (4)
Kenny Drew - p (1-3, 5)
Wade Legge - p (4)
George Morrow - b
Max Roach - d

Rec.: Van Gelder Studio, Hackensack, NJ, October 5 (#4) & December 7 (#1-3, 5), 1956.
 
 
Exact Audio Copy V0.99 prebeta 4 from 23. January 2008

EAC extraction logfile from 18. January 2009, 15:15

Sonny Rollins / Sonny Boy

Used drive : PLEXTOR CD-R PREMIUM2 Adapter: 1 ID: 1

Read mode : SecureUtilize accurate stream : YesDefeat audio cache : YesMake use of C2 pointers : No

Read offset correction : 30Overread into Lead-In and Lead-Out : YesFill up missing offset samples with silence : YesDelete leading and trailing silent blocks : NoNull samples used in CRC calculations : YesUsed interface : Installed external ASPI interfaceGap handling : Appended to previous track

Used output format : User Defined EncoderSelected bitrate : 32 kBit/sQuality : HighAdd ID3 tag : NoCommand line compressor : C:\Programmi\FLAC\flac.exeAdditional command line options : -8 -V -T "ARTIST=%a" -T "TITLE=%t" -T "ALBUM=%g" -T "DATE=%y" -T "TRACKNUMBER=%n" -T "GENRE=%m" -T "COMMENT=EAC FLAC -8" %s

TOC of the extracted CD

Track | Start | Length | Start sector | End sector --------------------------------------------------------- 1 | 0:00.00 | 6:55.67 | 0 | 31191 2 | 6:55.67 | 9:13.43 | 31192 | 72709 3 | 16:09.35 | 5:18.40 | 72710 | 96599 4 | 21:28.00 | 9:24.67 | 96600 | 138966 5 | 30:52.67 | 8:21.58 | 138967 | 176599

Track 1

Filename D:\My Rip\01 - EE-AH.wav

Pre-gap length 0:00:02.00

Peak level 68.2 % Track quality 100.0 % Test CRC 07497CFF Copy CRC 07497CFF Cannot be verified as accurate (confidence 4) [DA9C5D28], AccurateRip returned [28EE67A5] Copy OK

Track 2

Filename D:\My Rip\02 - B.QUICK.wav

Pre-gap length 0:00:02.42

Peak level 64.6 % Track quality 100.0 % Test CRC E11E5542 Copy CRC E11E5542 Cannot be verified as accurate (confidence 4) [18C24D78], AccurateRip returned [4E1E86DD] Copy OK

Track 3

Filename D:\My Rip\03 - B.SWIFT.wav

Pre-gap length 0:00:02.26

Peak level 73.0 % Track quality 100.0 % Test CRC AF2127FC Copy CRC AF2127FC Cannot be verified as accurate (confidence 4) [00432FA3], AccurateRip returned [83A9425B] Copy OK

Track 4

Filename D:\My Rip\04 - The House I Live In.wav

Pre-gap length 0:00:03.26

Peak level 74.2 % Track quality 100.0 % Test CRC AE108DE5 Copy CRC AE108DE5 Cannot be verified as accurate (confidence 4) [DF80F0EA], AccurateRip returned [21C9E532] Copy OK

Track 5

Filename D:\My Rip\05 - Sonny Boy.wav

Pre-gap length 0:00:02.49

Peak level 65.5 % Track quality 99.9 % Test CRC C23EB409 Copy CRC C23EB409 Cannot be verified as accurate (confidence 4) [69884482], AccurateRip returned [278E4040] Copy OK

No tracks could be verified as accurateYou may have a different pressing from the one(s) in the database

No errors occurred

End of status report
 
REM GENRE JazzREM DATE 1956REM DISCID 3D093205REM COMMENT "ExactAudioCopy v0.99pb4"PERFORMER "Sonny Rollins"TITLE "Sonny Boy"FILE "01 - EE-AH.flac" WAVE TRACK 01 AUDIO TITLE "EE-AH" PERFORMER "Sonny Rollins" INDEX 01 00:00:00 TRACK 02 AUDIO TITLE "B.QUICK" PERFORMER "Sonny Rollins" INDEX 00 06:53:35FILE "02 - B.QUICK.flac" WAVE INDEX 01 00:00:00 TRACK 03 AUDIO TITLE "B.SWIFT" PERFORMER "Sonny Rollins" INDEX 00 09:11:23FILE "03 - B.SWIFT.flac" WAVE INDEX 01 00:00:00 TRACK 04 AUDIO TITLE "The House I Live In" PERFORMER "Sonny Rollins" INDEX 00 05:15:20FILE "04 - The House I Live In.flac" WAVE INDEX 01 00:00:00 TRACK 05 AUDIO TITLE "Sonny Boy" PERFORMER "Sonny Rollins" INDEX 00 09:22:30FILE "05 - Sonny Boy.flac" WAVE INDEX 01 00:00:00
 
[CUETools log; Date: 19.01.2012 14:28:47; Version: 2.0.9][CTDB TOCID: U8dv8v_5k3ua3BsrVNypGb5nu74-] disk not present in database.[AccurateRip ID: 0007dfe5-0024f266-3d093205] found.Track [ CRC ] Status 01 [da9c5d28] (02/10) Accurately ripped 02 [18c24d78] (02/10) Accurately ripped 03 [00432fa3] (02/10) Accurately ripped 04 [df80f0ea] (02/10) Accurately ripped 05 [69884482] (02/10) Accurately ripped

Track Peak [ CRC32 ] [W/O NULL] [ LOG ] -- 74,2 [1EFF9AA2] [B7AC9E28] 01 68,2 [07497CFF] [792F61F5] CRC32 02 64,6 [E11E5542] [DFCDF8EA] CRC32 03 73,0 [AF2127FC] [8CE46DB5] CRC32 04 74,2 [AE108DE5] [4408E3BE] CRC32 05 65,5 [C23EB409] [31A10CEA] CRC32


Трекер:  [ 27-Янв-2012 16:01 ]

  

Скачать .torrent

Размер .torrent файла 20 KB


Размер: 239 MB
Хэш (hash) релиза: 32bb5b2ac1a57e51dde8596fff54f2e2391288c3

Еще никто не оставлял запись к записи скачать торрент Sonny Rollins - Sonny Boy . Будь первым!

!Обратная связь