Скачать через торрент музыку Sonny Rollins - Work Time бесплатно без регистрации torrent

Если у вас наблюдаются проблемы со скриншотами, переходом по ссылками, скачиванием торрентов - проблемы в блокировщике рекламы AdBlock. #хорошегоДня!


Статистика раздачи
Размер:  202 MB   |    Зарегистрирован:  5 лет 8 месяцев   |    .torrent скачан:  29 раз   |   
Раздают:  1  
   
Загрузка...
 
Автор Сообщение

Umakiro

avatar Umakiro


Sonny Rollins – Work Time (1955)

Жанр: Post-Bop
Год издания диска: 1982
Издатель (лейбл): OJC/Prestige
UPC Code: 025218110723
Аудиокодек: FLAC (*.flac)
Тип рипа: tracks+.cue
Битрейт аудио: lossless
Продолжительность: 33:01
Rip by Sarchiapone
Наличие сканов в содержимом раздачи: да

Треклист:
01. There's No Business Like Show Business (6:21)
02. Paradox (5:00)
03. Raincheck (6:01)
04. There Are Such Things (9:33)
05. It's All Right With Me (6:07)

Personnel:
Sonny Rollins - ts
Ray Bryant - p
George Morrow - b
Max Roach - d

Rec.: Van Gelder Studio, Hackensack, NJ, December 2, 1955.
 
 
Exact Audio Copy V0.99 prebeta 4 from 23. January 2008

EAC extraction logfile from 25. January 2009, 16:54

Sonny Rollins / Worktime

Used drive : PLEXTOR CD-R PREMIUM2 Adapter: 1 ID: 1

Read mode : SecureUtilize accurate stream : YesDefeat audio cache : YesMake use of C2 pointers : No

Read offset correction : 30Overread into Lead-In and Lead-Out : YesFill up missing offset samples with silence : YesDelete leading and trailing silent blocks : NoNull samples used in CRC calculations : YesUsed interface : Installed external ASPI interfaceGap handling : Appended to previous track

Used output format : User Defined EncoderSelected bitrate : 32 kBit/sQuality : HighAdd ID3 tag : NoCommand line compressor : C:\Programmi\FLAC\flac.exeAdditional command line options : -8 -V -T "ARTIST=%a" -T "TITLE=%t" -T "ALBUM=%g" -T "DATE=%y" -T "TRACKNUMBER=%n" -T "GENRE=%m" -T "COMMENT=EAC FLAC -8" %s

TOC of the extracted CD

Track | Start | Length | Start sector | End sector --------------------------------------------------------- 1 | 0:00.00 | 6:20.52 | 0 | 28551 2 | 6:20.52 | 5:00.30 | 28552 | 51081 3 | 11:21.07 | 6:00.53 | 51082 | 78134 4 | 17:21.60 | 9:32.57 | 78135 | 121091 5 | 26:54.42 | 6:06.68 | 121092 | 148609

Track 1

Filename D:\My Rip\01 - There's No Business Like Show Business.wav

Pre-gap length 0:00:02.00

Peak level 93.5 % Track quality 100.0 % Test CRC B383D62B Copy CRC B383D62B Cannot be verified as accurate (confidence 1) [A01CD47D], AccurateRip returned [5A48B990] Copy OK

Track 2

Filename D:\My Rip\02 - Paradox.wav

Pre-gap length 0:00:01.73

Peak level 80.9 % Track quality 100.0 % Test CRC CBD950D9 Copy CRC CBD950D9 Cannot be verified as accurate (confidence 1) [1AC64011], AccurateRip returned [7B2CEB90] Copy OK

Track 3

Filename D:\My Rip\03 - Raincheck.wav

Pre-gap length 0:00:04.40

Peak level 84.3 % Track quality 100.0 % Test CRC C6094EA0 Copy CRC C6094EA0 Cannot be verified as accurate (confidence 1) [625FD81B], AccurateRip returned [2532D773] Copy OK

Track 4

Filename D:\My Rip\04 - There Are Such Things.wav

Pre-gap length 0:00:01.84

Peak level 97.0 % Track quality 100.0 % Test CRC EDED1283 Copy CRC EDED1283 Cannot be verified as accurate (confidence 1) [0BD60A8D], AccurateRip returned [49E1A915] Copy OK

Track 5

Filename D:\My Rip\05 - It's All Right With Me.wav

Pre-gap length 0:00:04.49

Peak level 98.2 % Track quality 99.9 % Test CRC A612E198 Copy CRC A612E198 Cannot be verified as accurate (confidence 1) [706E366C], AccurateRip returned [B1753742] Copy OK

No tracks could be verified as accurateYou may have a different pressing from the one(s) in the database

No errors occurred

End of status report
 
REM GENRE JazzREM DATE 1955REM DISCID 3607BD05REM COMMENT "ExactAudioCopy v0.99pb4"PERFORMER "Sonny Rollins"TITLE "Worktime"FILE "01 - There's No Business Like Show Business.flac" WAVE TRACK 01 AUDIO TITLE "There's No Business Like Show Business" PERFORMER "Sonny Rollins" INDEX 01 00:00:00 TRACK 02 AUDIO TITLE "Paradox" PERFORMER "Sonny Rollins" INDEX 00 06:18:72FILE "02 - Paradox.flac" WAVE INDEX 01 00:00:00 TRACK 03 AUDIO TITLE "Raincheck" PERFORMER "Sonny Rollins" INDEX 00 04:56:00FILE "03 - Raincheck.flac" WAVE INDEX 01 00:00:00 TRACK 04 AUDIO TITLE "There Are Such Things" PERFORMER "Sonny Rollins" INDEX 00 05:58:65FILE "04 - There Are Such Things.flac" WAVE INDEX 01 00:00:00 TRACK 05 AUDIO TITLE "It's All Right With Me" PERFORMER "Sonny Rollins" INDEX 00 09:28:20FILE "05 - It's All Right With Me.flac" WAVE INDEX 01 00:00:00
 
[CUETools log; Date: 19.01.2012 15:08:12; Version: 2.0.9][CTDB TOCID: Za4KJExOVC7zAfcbAOxHTnXv_dA-] disk not present in database.[AccurateRip ID: 000685cf-001ed2ab-3607bd05] found.Track [ CRC ] Status 01 [a01cd47d] (2/7) Accurately ripped 02 [1ac64011] (2/7) Accurately ripped 03 [625fd81b] (2/7) Accurately ripped 04 [0bd60a8d] (2/7) Accurately ripped 05 [706e366c] (2/7) Accurately rippedOffsetted by 103: 01 [5a48b990] (3/7) Accurately ripped 02 [7b2ceb90] (3/7) Accurately ripped 03 [2532d773] (3/7) Accurately ripped 04 [49e1a915] (3/7) Accurately ripped 05 [b1753742] (3/7) Accurately rippedOffsetted by 664: 01 [9f4f5212] (2/7) Accurately ripped 02 [12edc083] (2/7) Accurately ripped 03 [6c8e4149] (2/7) Accurately ripped 04 [8b777695] (2/7) Accurately ripped 05 [ef0033bc] (2/7) Accurately ripped

Track Peak [ CRC32 ] [W/O NULL] [ LOG ] -- 98,2 [299D8AEC] [1AFD97CD] 01 93,5 [B383D62B] [9BA1C8B2] CRC32 02 80,9 [CBD950D9] [FE5CB020] CRC32 03 84,3 [C6094EA0] [F89651C1] CRC32 04 97,0 [EDED1283] [B0B9DD91] CRC32 05 98,2 [A612E198] [886714F8] CRC32


Трекер:  [ 27-Янв-2012 16:00 ]

  

Скачать .torrent

Размер .torrent файла 17 KB


Размер: 202 MB
Хэш (hash) релиза: d5fee3ceba28cd9c95360722f77bd2fc7eaf131c

Еще никто не оставлял запись к записи скачать торрент Sonny Rollins - Work Time . Будь первым!

!Обратная связь