Скачать через торрент музыку Sonny Rollins - Moving Out бесплатно без регистрации torrent

Если у вас наблюдаются проблемы со скриншотами, переходом по ссылками, скачиванием торрентов - проблемы в блокировщике рекламы AdBlock. #хорошегоДня!


Статистика раздачи
Размер:  162 MB   |    Зарегистрирован:  5 лет 8 месяцев   |    .torrent скачан:  28 раз   |   
Раздают:  1  
   
Загрузка...
 
Автор Сообщение

Umakiro

avatar Umakiro


Sonny Rollins – Moving Out (1954)

Жанр: Post-Bop
Год издания диска: 1987
Издатель (лейбл): OJC/Prestige
UPC Code: 025218605823
Аудиокодек: FLAC (*.flac)
Тип рипа: tracks+.cue
Битрейт аудио: lossless
Продолжительность: 31:39
Rip by Sarchiapone
Наличие сканов в содержимом раздачи: да

Треклист:
01. Moving Out (4:31)
02. Swingin' For Bumsy (5:49)
03. Silk n' Satin (4:03)
04. Solid (6:27)
05. More Than You Know (10:49)

Personnel:
Sonny Rollins - ts
Kenny Dorham - tp (1-4)
Elmo Hope (1-4), Thelonious Monk (5) - p
Percy Heath (1-4), Tommy Potter (5) - b
Art Blakey (1-4), Arthur Taylor (5) - d

Rec.: Van Gelder Studio, Hackensack, NJ, August 18 (#1-4) and October 25 (#5), 1954.
 
 
Exact Audio Copy V0.99 prebeta 4 from 23. January 2008

EAC extraction logfile from 25. January 2009, 19:56

Sonny Rollins / Moving Out

Used drive : PLEXTOR CD-R PREMIUM2 Adapter: 1 ID: 1

Read mode : SecureUtilize accurate stream : YesDefeat audio cache : YesMake use of C2 pointers : No

Read offset correction : 30Overread into Lead-In and Lead-Out : YesFill up missing offset samples with silence : YesDelete leading and trailing silent blocks : NoNull samples used in CRC calculations : YesUsed interface : Installed external ASPI interfaceGap handling : Appended to previous track

Used output format : User Defined EncoderSelected bitrate : 32 kBit/sQuality : HighAdd ID3 tag : NoCommand line compressor : C:\Programmi\FLAC\flac.exeAdditional command line options : -8 -V -T "ARTIST=%a" -T "TITLE=%t" -T "ALBUM=%g" -T "DATE=%y" -T "TRACKNUMBER=%n" -T "GENRE=%m" -T "COMMENT=EAC FLAC -8" %s

TOC of the extracted CD

Track | Start | Length | Start sector | End sector --------------------------------------------------------- 1 | 0:00.00 | 4:31.32 | 0 | 20356 2 | 4:31.32 | 5:48.65 | 20357 | 46521 3 | 10:20.22 | 4:03.00 | 46522 | 64746 4 | 14:23.22 | 6:27.18 | 64747 | 93789 5 | 20:50.40 | 10:48.60 | 93790 | 142449

Track 1

Filename D:\My Rip\01 - Moving Out.wav

Pre-gap length 0:00:02.00

Peak level 81.8 % Track quality 100.0 % Test CRC E7999CDB Copy CRC E7999CDB Cannot be verified as accurate (confidence 2) [28CB1DAD], AccurateRip returned [938BF033] Copy OK

Track 2

Filename D:\My Rip\02 - Swingin' for Bumsy.wav

Pre-gap length 0:00:03.69

Peak level 93.6 % Track quality 100.0 % Test CRC 7252DB82 Copy CRC 7252DB82 Cannot be verified as accurate (confidence 2) [EA21914A], AccurateRip returned [62535F0B] Copy OK

Track 3

Filename D:\My Rip\03 - Silk n' Satin.wav

Pre-gap length 0:00:03.13

Peak level 79.8 % Track quality 100.0 % Test CRC D37F5A70 Copy CRC D37F5A70 Cannot be verified as accurate (confidence 2) [08F285A1], AccurateRip returned [A9C85B94] Copy OK

Track 4

Filename D:\My Rip\04 - Solid.wav

Pre-gap length 0:00:05.00

Peak level 84.3 % Track quality 100.0 % Test CRC FDCCE307 Copy CRC FDCCE307 Cannot be verified as accurate (confidence 2) [113E44F8], AccurateRip returned [AE1FB258] Copy OK

Track 5

Filename D:\My Rip\05 - More Than You Know.wav

Pre-gap length 0:00:02.70

Peak level 90.8 % Track quality 100.0 % Test CRC FBE70E08 Copy CRC FBE70E08 Cannot be verified as accurate (confidence 2) [80697CB7], AccurateRip returned [8F29051D] Copy OK

No tracks could be verified as accurateYou may have a different pressing from the one(s) in the database

No errors occurred

End of status report
 
REM GENRE JazzREM DATE 1954REM DISCID 35076B05REM COMMENT "ExactAudioCopy v0.99pb4"PERFORMER "Sonny Rollins"TITLE "Moving Out"FILE "01 - Moving Out.flac" WAVE TRACK 01 AUDIO TITLE "Moving Out" PERFORMER "Sonny Rollins" INDEX 01 00:00:00 TRACK 02 AUDIO TITLE "Swingin' For Bumsy" PERFORMER "Sonny Rollins" INDEX 00 04:27:55FILE "02 - Swingin' For Bumsy.flac" WAVE INDEX 01 00:00:00 TRACK 03 AUDIO TITLE "Silk n' Satin" PERFORMER "Sonny Rollins" INDEX 00 05:45:55FILE "03 - Silk n' Satin.flac" WAVE INDEX 01 00:00:00 TRACK 04 AUDIO TITLE "Solid" PERFORMER "Sonny Rollins" INDEX 00 03:58:00FILE "04 - Solid.flac" WAVE INDEX 01 00:00:00 TRACK 05 AUDIO TITLE "More Than You Know" PERFORMER "Sonny Rollins" INDEX 00 06:24:40FILE "05 - More Than You Know.flac" WAVE INDEX 01 00:00:00
 
[CUETools log; Date: 19.01.2012 16:13:56; Version: 2.0.9][CTDB TOCID: REIbJNCM.mguBys8sdNCEH1QJck-] disk not present in database.[AccurateRip ID: 00059cfa-001ae667-35076b05] found.Track [ CRC ] Status 01 [28cb1dad] (2/6) No match but offset 02 [ea21914a] (2/6) No match but offset 03 [08f285a1] (2/6) No match but offset 04 [113e44f8] (2/6) No match but offset 05 [80697cb7] (2/6) No match but offset

Track Peak [ CRC32 ] [W/O NULL] [ LOG ] -- 93,6 [E15323E0] [85049A66] 01 81,8 [E7999CDB] [0BF9AABD] CRC32 02 93,6 [7252DB82] [872B24F5] CRC32 03 79,8 [D37F5A70] [BF2C6BC9] CRC32 04 84,3 [FDCCE307] [F7409B2F] CRC32 05 90,8 [FBE70E08] [A79D2912] CRC32


Трекер:  [ 27-Янв-2012 16:00 ]

  

Скачать .torrent

Размер .torrent файла 14 KB


Размер: 162 MB
Хэш (hash) релиза: 320e66f54da787765bbe6986a14642830e1cbdcc

Еще никто не оставлял запись к записи скачать торрент Sonny Rollins - Moving Out . Будь первым!

!Обратная связь