Скачать через торрент музыку Bert Kaempfert - The Very Best Of Bert Kaempfert - 1995, FLAC бесплатно без регистрации torrent

Если у вас наблюдаются проблемы со скриншотами, переходом по ссылками, скачиванием торрентов - проблемы в блокировщике рекламы AdBlock. #хорошегоДня!


Статистика раздачи
Размер:  268 MB   |    Зарегистрирован:  5 лет 8 месяцев   |    .torrent скачан:  50 раз   |   
Раздают:  2  
   
Загрузка...
 
Автор Сообщение

Umakiro

avatar Umakiro


Bert Kaempfert – The Very Best Of Bert Kaempfert

Жанр: Smooth Jazz, Easy Listening
Год издания диска: 1995
Издатель (лейбл): Taragon
Номер по каталогу: 21014
Аудиокодек: FLAC (*.flac)
Тип рипа: tracks+.cue
Битрейт аудио: lossless
Продолжительность: 46:42
Источник (релизер): вата
Наличие сканов в содержимом раздачи: да

Треклист:
01. Wonderland By Night (3:17)
02. Tenderly (3:16)
03. Now And Forever (2:51)
04. Afrikaan Beat (2:28)
05. That Happy Feeling (2:55)
06. A Swingin' Safari (3:09)
07. Magic Trumpet (Happy Trumpeter) (2:40)
08. Danke Schoen (3:16)
09. L-O-V-E (Love) (2:07)
10. Red Roses For A Blue Lady (2:24)
11. Three O'Clock In The Morning (2:36)
12. Spanish Eyes (Moon Over Naples) (2:40)
13. Bye Bye Blues (2:57)
14. Strangers In The Night (3:23)
15. Lady (3:13)
16. The World We Knew (Over And Over) (3:30)
 
 
Exact Audio Copy V0.99 prebeta 4 from 23. January 2008

EAC extraction logfile from 24. July 2009, 1:03

Bert Kaempfert / The Very Best Of Bert Kaempfert

Used drive : TSSTcorpCD/DVDW TS-H552L Adapter: 5 ID: 0

Read mode : SecureUtilize accurate stream : YesDefeat audio cache : YesMake use of C2 pointers : No

Read offset correction : 6Overread into Lead-In and Lead-Out : NoFill up missing offset samples with silence : YesDelete leading and trailing silent blocks : NoNull samples used in CRC calculations : YesUsed interface : Native Win32 interface for Win NT & 2000Gap handling : Appended to previous track

Used output format : User Defined EncoderSelected bitrate : 128 kBit/sQuality : HighAdd ID3 tag : NoCommand line compressor : C:\Program Files\Exact Audio Copy\FLAC\FLAC.EXEAdditional command line options : --best -T "ARTIST=%a" -T "TITLE=%t" -T "ALBUM=%g" -T "DATE=%y" -T "TRACKNUMBER=%n" -T "GENRE=%m" %s

TOC of the extracted CD

Track | Start | Length | Start sector | End sector --------------------------------------------------------- 1 | 0:00.32 | 3:16.53 | 32 | 14784 2 | 3:17.10 | 3:15.47 | 14785 | 29456 3 | 6:32.57 | 2:51.03 | 29457 | 42284 4 | 9:23.60 | 2:27.42 | 42285 | 53351 5 | 11:51.27 | 2:55.05 | 53352 | 66481 6 | 14:46.32 | 3:09.13 | 66482 | 80669 7 | 17:55.45 | 2:40.10 | 80670 | 92679 8 | 20:35.55 | 3:16.32 | 92680 | 107411 9 | 23:52.12 | 2:07.18 | 107412 | 116954 10 | 25:59.30 | 2:23.67 | 116955 | 127746 11 | 28:23.22 | 2:36.08 | 127747 | 139454 12 | 30:59.30 | 2:40.30 | 139455 | 151484 13 | 33:39.60 | 2:57.35 | 151485 | 164794 14 | 36:37.20 | 3:22.50 | 164795 | 179994 15 | 39:59.70 | 3:12.40 | 179995 | 194434 16 | 43:12.35 | 3:29.40 | 194435 | 210149

Track 1

Filename C:\RIP\Lounge\Bert Kaempfert\The Very Best Of Bert Kaempfert\01-Wonderland By Night (Wunderland Bei Nacht).wav

Pre-gap length 0:00:02.42

Peak level 99.9 % Track quality 100.0 % Test CRC 16A1907F Copy CRC 16A1907F Accurately ripped (confidence 5) [9CCF0AD2] Copy OK

Track 2

Filename C:\RIP\Lounge\Bert Kaempfert\The Very Best Of Bert Kaempfert\02-Tenderly.wav

Pre-gap length 0:00:03.33

Peak level 99.9 % Track quality 100.0 % Test CRC 004322A2 Copy CRC 004322A2 Accurately ripped (confidence 5) [F36262E7] Copy OK

Track 3

Filename C:\RIP\Lounge\Bert Kaempfert\The Very Best Of Bert Kaempfert\03-Now And Forever.wav

Pre-gap length 0:00:02.82

Peak level 99.9 % Track quality 100.0 % Test CRC 0BF48419 Copy CRC 0BF48419 Accurately ripped (confidence 5) [13E26127] Copy OK

Track 4

Filename C:\RIP\Lounge\Bert Kaempfert\The Very Best Of Bert Kaempfert\04-Afrikaan Beat.wav

Pre-gap length 0:00:04.00

Peak level 99.9 % Track quality 100.0 % Test CRC 98BCBF29 Copy CRC 98BCBF29 Accurately ripped (confidence 5) [11B9566B] Copy OK

Track 5

Filename C:\RIP\Lounge\Bert Kaempfert\The Very Best Of Bert Kaempfert\05-That Happy Feeling.wav

Pre-gap length 0:00:02.89

Peak level 99.9 % Track quality 100.0 % Test CRC EF10383F Copy CRC EF10383F Accurately ripped (confidence 5) [6C3E2944] Copy OK

Track 6

Filename C:\RIP\Lounge\Bert Kaempfert\The Very Best Of Bert Kaempfert\06-A Swingin' Safari.wav

Pre-gap length 0:00:02.96

Peak level 99.9 % Track quality 100.0 % Test CRC 9ED18050 Copy CRC 9ED18050 Accurately ripped (confidence 5) [33833066] Copy OK

Track 7

Filename C:\RIP\Lounge\Bert Kaempfert\The Very Best Of Bert Kaempfert\07-Magic Trumpet (Happy Trumpeter).wav

Pre-gap length 0:00:02.84

Peak level 99.9 % Track quality 100.0 % Test CRC 158D2488 Copy CRC 158D2488 Accurately ripped (confidence 5) [F91F3740] Copy OK

Track 8

Filename C:\RIP\Lounge\Bert Kaempfert\The Very Best Of Bert Kaempfert\08-Danke Schon.wav

Pre-gap length 0:00:03.26

Peak level 99.9 % Track quality 100.0 % Test CRC 81924B5D Copy CRC 81924B5D Accurately ripped (confidence 4) [64BC8A3B] Copy OK

Track 9

Filename C:\RIP\Lounge\Bert Kaempfert\The Very Best Of Bert Kaempfert\09-L-O-V-E (Love).wav

Pre-gap length 0:00:03.56

Peak level 99.9 % Track quality 100.0 % Test CRC 0292C7F6 Copy CRC 0292C7F6 Accurately ripped (confidence 4) [2F8C6BAE] Copy OK

Track 10

Filename C:\RIP\Lounge\Bert Kaempfert\The Very Best Of Bert Kaempfert\10-Red Roses For A Blue Lady.wav

Pre-gap length 0:00:02.97

Peak level 99.9 % Track quality 100.0 % Test CRC 9C9F3BD2 Copy CRC 9C9F3BD2 Accurately ripped (confidence 4) [66CFB77D] Copy OK

Track 11

Filename C:\RIP\Lounge\Bert Kaempfert\The Very Best Of Bert Kaempfert\11-Three O'clock In The Morning.wav

Pre-gap length 0:00:03.73

Peak level 99.9 % Track quality 100.0 % Test CRC 361C6B31 Copy CRC 361C6B31 Accurately ripped (confidence 4) [80C6A586] Copy OK

Track 12

Filename C:\RIP\Lounge\Bert Kaempfert\The Very Best Of Bert Kaempfert\12-Spanish Eyes (Moon Over Naples).wav

Pre-gap length 0:00:03.04

Peak level 99.9 % Track quality 99.9 % Test CRC C5875707 Copy CRC C5875707 Accurately ripped (confidence 5) [64079867] Copy OK

Track 13

Filename C:\RIP\Lounge\Bert Kaempfert\The Very Best Of Bert Kaempfert\13-Bye Bye Blues.wav

Pre-gap length 0:00:04.17

Peak level 99.9 % Track quality 100.0 % Test CRC E4EEF6C2 Copy CRC E4EEF6C2 Accurately ripped (confidence 4) [CA54AEB0] Copy OK

Track 14

Filename C:\RIP\Lounge\Bert Kaempfert\The Very Best Of Bert Kaempfert\14-Strangers In The Night.wav

Pre-gap length 0:00:02.97

Peak level 99.9 % Track quality 100.0 % Test CRC 8B1ECB6F Copy CRC 8B1ECB6F Accurately ripped (confidence 4) [449392D2] Copy OK

Track 15

Filename C:\RIP\Lounge\Bert Kaempfert\The Very Best Of Bert Kaempfert\15-Lady.wav

Pre-gap length 0:00:02.90

Peak level 99.9 % Track quality 100.0 % Test CRC 1414750A Copy CRC 1414750A Accurately ripped (confidence 4) [EE6CF274] Copy OK

Track 16

Filename C:\RIP\Lounge\Bert Kaempfert\The Very Best Of Bert Kaempfert\16-The World We Knew (Over And Over).wav

Pre-gap length 0:00:04.10

Peak level 99.9 % Track quality 99.9 % Test CRC 4DB1DEBB Copy CRC 4DB1DEBB Accurately ripped (confidence 4) [CB8D4EDA] Copy OK

All tracks accurately ripped

No errors occurred

End of status report
 
REM GENRE LoungeREM DATE 1995REM DISCID DF0AF210REM COMMENT "ExactAudioCopy v0.99pb4"TITLE "The Very Best Of Bert Kaempfert"PERFORMER "Bert Kaempfert"FILE "01. Wonderland By Night.flac" WAVE TRACK 01 AUDIO PREGAP 00:00:32 INDEX 01 00:00:00 TRACK 02 AUDIO INDEX 00 03:13:28FILE "02. Tenderly.flac" WAVE INDEX 01 00:00:00 TRACK 03 AUDIO INDEX 00 03:12:60FILE "03. Now And Forever.flac" WAVE INDEX 01 00:00:00 TRACK 04 AUDIO INDEX 00 02:47:03FILE "04. Afrikaan Beat.flac" WAVE INDEX 01 00:00:00 TRACK 05 AUDIO INDEX 00 02:24:50FILE "05. That Happy Feeling.flac" WAVE INDEX 01 00:00:00 TRACK 06 AUDIO INDEX 00 02:52:08FILE "06. A Swingin' Safari.flac" WAVE INDEX 01 00:00:00 TRACK 07 AUDIO INDEX 00 03:06:25FILE "07. Magic Trumpet (Happy Trumpeter).flac" WAVE INDEX 01 00:00:00 TRACK 08 AUDIO INDEX 00 02:36:65FILE "08. Danke Schoen.flac" WAVE INDEX 01 00:00:00 TRACK 09 AUDIO INDEX 00 03:12:65FILE "09. L-O-V-E (Love).flac" WAVE INDEX 01 00:00:00 TRACK 10 AUDIO INDEX 00 02:04:20FILE "10. Red Roses For A Blue Lady.flac" WAVE INDEX 01 00:00:00 TRACK 11 AUDIO INDEX 00 02:20:12FILE "11. Three O'Clock In The Morning.flac" WAVE INDEX 01 00:00:00 TRACK 12 AUDIO INDEX 00 02:33:05FILE "12. Spanish Eyes (Moon Over Naples).flac" WAVE INDEX 01 00:00:00 TRACK 13 AUDIO INDEX 00 02:36:17FILE "13. Bye Bye Blues.flac" WAVE INDEX 01 00:00:00 TRACK 14 AUDIO INDEX 00 02:54:37FILE "14. Strangers In The Night.flac" WAVE INDEX 01 00:00:00 TRACK 15 AUDIO INDEX 00 03:19:57FILE "15. Lady.flac" WAVE INDEX 01 00:00:00 TRACK 16 AUDIO INDEX 00 03:08:32FILE "16. The World We Knew (Over And Over).flac" WAVE INDEX 01 00:00:00


Трекер:  [ 27-Янв-2012 15:59 ]

  

Скачать .torrent

Размер .torrent файла 12 KB


Размер: 268 MB
Хэш (hash) релиза: 74676b5581da63d1be1514b9bfb2a63d8d281a93

Еще никто не оставлял запись к записи скачать торрент Bert Kaempfert - The Very Best Of Bert Kaempfert - 1995, FLAC . Будь первым!

!Обратная связь