Скачать через торрент музыку Astrud Gilberto - Now бесплатно без регистрации torrent

Если у вас наблюдаются проблемы со скриншотами, переходом по ссылками, скачиванием торрентов - проблемы в блокировщике рекламы AdBlock. #хорошегоДня!


Статистика раздачи
Размер:  199 MB   |    Зарегистрирован:  5 лет 8 месяцев   |    .torrent скачан:  51 раз   |   
Раздают:  1  
   
Загрузка...
 
Автор Сообщение

Umakiro

avatar Umakiro


Astrud Gilberto – Now

Жанр: Vocal Jazz, Bossa Nova
Год издания диска: 2001
Издатель (лейбл): Castle Music
Номер по каталогу: CMRCD290
Аудиокодек: FLAC (*.flac)
Тип рипа: tracks+.cue
Битрейт аудио: lossless
Продолжительность: 34:49
Rip by mishka1981
Наличие сканов в содержимом раздачи: да

Треклист:
01. Zigy Zigy Za (4:03)
02. Make Love To Me (3:16)
03. Baiao (3:00)
04. Touching You (3:49)
05. Gingele (3:59)
06. Take It Easy, My Brother Charlie (3:22)
07. Where Have You Been? (3:05)
08. General Da Banda (3:36)
09. Bridges (3:46)
10. Daybreak (Walking Out On Yesterday) (2:51)

Personnel:
Astrud Gilberto - vo
Mike Longo - p
Eumir Deodato, Al Gaffa - g
Bob Cranshaw, Patrick Adams, Ron Carter - b
Billy Cobham, Mickey Rocker - d
Airto Moreira - perc
 
 
Exact Audio Copy V1.0 beta 1 from 15. November 2010

EAC extraction logfile from 20. January 2012, 15:31

Astrud Gilberto / Now

Used drive : Optiarc DVD RW AD-7710H Adapter: 1 ID: 0

Read mode : SecureUtilize accurate stream : YesDefeat audio cache : YesMake use of C2 pointers : No

Read offset correction : 48Overread into Lead-In and Lead-Out : NoFill up missing offset samples with silence : YesDelete leading and trailing silent blocks : NoNull samples used in CRC calculations : YesUsed interface : Native Win32 interface for Win NT & 2000Gap handling : Appended to previous track

Used output format : User Defined EncoderSelected bitrate : 896 kBit/sQuality : HighAdd ID3 tag : NoCommand line compressor : C:\Program Files\Exact Audio Copy\FLAC\FLAC.EXEAdditional command line options : -8 -V -T "ARTIST=%a" -T "TITLE=%t" -T "ALBUM=%g" -T "DATE=%y" -T "TRACKNUMBER=%n" -T "GENRE=%m" -T "COMMENT=%e" %j--picture="%i"%j %s -o %d

TOC of the extracted CD

Track | Start | Length | Start sector | End sector --------------------------------------------------------- 1 | 0:00.00 | 4:03.30 | 0 | 18254 2 | 4:03.30 | 3:16.24 | 18255 | 32978 3 | 7:19.54 | 3:00.00 | 32979 | 46478 4 | 10:19.54 | 3:48.39 | 46479 | 63617 5 | 14:08.18 | 3:59.16 | 63618 | 81558 6 | 18:07.34 | 3:22.32 | 81559 | 96740 7 | 21:29.66 | 3:05.03 | 96741 | 110618 8 | 24:34.69 | 3:36.30 | 110619 | 126848 9 | 28:11.24 | 3:46.09 | 126849 | 143807 10 | 31:57.33 | 2:51.09 | 143808 | 156641

Track 1

Filename C:\MY RIPS\01 - Zigy Zigy Za.wav

Pre-gap length 0:00:02.00

Peak level 96.8 % Extraction speed 2.2 X Track quality 99.9 % Test CRC 8CBD30B4 Copy CRC 8CBD30B4 Accurately ripped (confidence 2) [8BAD25FD] Copy OK

Track 2

Filename C:\MY RIPS\02 - Make Love To Me.wav

Peak level 96.6 % Extraction speed 2.9 X Track quality 100.0 % Test CRC E253FF02 Copy CRC E253FF02 Accurately ripped (confidence 2) [1B978C2E] Copy OK

Track 3

Filename C:\MY RIPS\03 - Baiao.wav

Pre-gap length 0:00:01.69

Peak level 96.6 % Extraction speed 2.4 X Track quality 99.9 % Test CRC D362516B Copy CRC D362516B Accurately ripped (confidence 2) [7B56AEDC] Copy OK

Track 4

Filename C:\MY RIPS\04 - Touching You.wav

Pre-gap length 0:00:01.22

Peak level 96.6 % Extraction speed 3.4 X Track quality 100.0 % Test CRC F4F2EA0E Copy CRC F4F2EA0E Accurately ripped (confidence 2) [F6C64780] Copy OK

Track 5

Filename C:\MY RIPS\05 - Gingele.wav

Pre-gap length 0:00:02.34

Peak level 96.6 % Extraction speed 3.6 X Track quality 100.0 % Test CRC 507B0E94 Copy CRC 507B0E94 Accurately ripped (confidence 2) [C8B188B7] Copy OK

Track 6

Filename C:\MY RIPS\06 - Take It Easy, My Brother Charlie.wav

Pre-gap length 0:00:00.10

Peak level 96.6 % Extraction speed 3.7 X Track quality 100.0 % Test CRC 8163AEAC Copy CRC 8163AEAC Accurately ripped (confidence 2) [EAF51A37] Copy OK

Track 7

Filename C:\MY RIPS\07 - Where Have You Been.wav

Pre-gap length 0:00:01.42

Peak level 96.6 % Extraction speed 3.8 X Track quality 100.0 % Test CRC E19A1973 Copy CRC E19A1973 Accurately ripped (confidence 2) [B2C927C6] Copy OK

Track 8

Filename C:\MY RIPS\08 - General Da Banda.wav

Pre-gap length 0:00:00.74

Peak level 96.6 % Extraction speed 4.1 X Track quality 100.0 % Test CRC B78C349A Copy CRC B78C349A Accurately ripped (confidence 2) [EF7C8851] Copy OK

Track 9

Filename C:\MY RIPS\09 - Bridges.wav

Pre-gap length 0:00:00.74

Peak level 96.6 % Extraction speed 3.5 X Track quality 99.9 % Test CRC 2F68259E Copy CRC 2F68259E Accurately ripped (confidence 2) [67D3B535] Copy OK

Track 10

Filename C:\MY RIPS\10 - Daybreak (Walking Out On Yesterday).wav

Pre-gap length 0:00:00.52

Peak level 96.6 % Extraction speed 4.3 X Track quality 100.0 % Test CRC 6F42CFDB Copy CRC 6F42CFDB Accurately ripped (confidence 2) [8A25D74F] Copy OK

All tracks accurately ripped

No errors occurred

End of status report

==== Log checksum 470094875982D3AC807AEDE2576DE0AB42E070E2623C18D77ED063E2A752FB2E ====
 
REM GENRE LatinREM DATE 1972REM DISCID 8408280AREM COMMENT "ExactAudioCopy v1.0b1"PERFORMER "Astrud Gilberto"TITLE "Now"FILE "01 - Zigy Zigy Za.wav" WAVE TRACK 01 AUDIO TITLE "Zigy Zigy Za" PERFORMER "Astrud Gilberto" INDEX 01 00:00:00FILE "02 - Make Love To Me.wav" WAVE TRACK 02 AUDIO TITLE "Make Love To Me" PERFORMER "Astrud Gilberto" INDEX 01 00:00:00 TRACK 03 AUDIO TITLE "Baiao" PERFORMER "Astrud Gilberto" INDEX 00 03:14:30FILE "03 - Baiao.wav" WAVE INDEX 01 00:00:00 TRACK 04 AUDIO TITLE "Touching You" PERFORMER "Astrud Gilberto" INDEX 00 02:58:53FILE "04 - Touching You.wav" WAVE INDEX 01 00:00:00 TRACK 05 AUDIO TITLE "Gingele" PERFORMER "Astrud Gilberto" INDEX 00 03:46:05FILE "05 - Gingele.wav" WAVE INDEX 01 00:00:00 TRACK 06 AUDIO TITLE "Take It Easy, My Brother Charlie" PERFORMER "Astrud Gilberto" INDEX 00 03:59:06FILE "06 - Take It Easy, My Brother Charlie.wav" WAVE INDEX 01 00:00:00 TRACK 07 AUDIO TITLE "Where Have You Been?" PERFORMER "Astrud Gilberto" INDEX 00 03:20:65FILE "07 - Where Have You Been.wav" WAVE INDEX 01 00:00:00 TRACK 08 AUDIO TITLE "General Da Banda" PERFORMER "Astrud Gilberto" INDEX 00 03:04:04FILE "08 - General Da Banda.wav" WAVE INDEX 01 00:00:00 TRACK 09 AUDIO TITLE "Bridges" PERFORMER "Astrud Gilberto" INDEX 00 03:35:31FILE "09 - Bridges.wav" WAVE INDEX 01 00:00:00 TRACK 10 AUDIO TITLE "Daybreak (Walking Out On Yesterday)" PERFORMER "Astrud Gilberto" INDEX 00 03:45:32FILE "10 - Daybreak (Walking Out On Yesterday).wav" WAVE INDEX 01 00:00:00


Трекер:  [ 27-Янв-2012 15:59 ]

  

Скачать .torrent

Размер .torrent файла 17 KB


Размер: 199 MB
Хэш (hash) релиза: d5155513d8111ab626fbddf9c219e6a0be640bfe

Еще никто не оставлял запись к записи скачать торрент Astrud Gilberto - Now . Будь первым!

!Обратная связь