Скачать через торрент музыку The New Morty Show — Straight Ahead — 2000, FLAC бесплатно без регистрации torrent

Если у вас наблюдаются проблемы со скриншотами, переходом по ссылками, скачиванием торрентов - проблемы в блокировщике рекламы AdBlock. #хорошегоДня!


Статистика раздачи
Размер:  276 MB   |    Зарегистрирован:  5 лет 8 месяцев   |    .torrent скачан:  35 раз   |   
Раздают:  1  
   
Загрузка...
 
Автор Сообщение

Umakiro

avatar Umakiro


The New Morty Show — Straight Ahead

Жанр: Neo-Swing
Год выпуска диска: 2000
Производитель диска: New Morty Show Records
Аудио кодек: FLAC
Тип рипа: tracks+.cue
Битрейт аудио: lossless
Продолжительность: 41:41

Треклист:
01. Tico Tico (3:53)
02. Stella By Starlight (5:10)
03. Maiden Voyage (4:34)
04. Long Long Summer (5:49)
05. Destination Moon (2:05)
06. Spring Can Really Hang You Up the Most (5:01)
07. No Moon At All (3:09)
08. Pork Pie (3:51)
09. Samba Du Morpheus (4:36)
10. All The Things You Are (3:33)

   Источник:
 
AUDIOCHECKER v2.0 beta (build 457) - by Dester - opdester@freemail.hu~~~~~~~~~~~~~~~~~~~~~~~~~~~~~~~~~~

Started at: среда, 11. 08. 2010. - 13:28.3710 files found

01 -===- N:\01 - Tico Tico.flac Extracted successfully Conclusion: this track is CDDA with probability 100% Tempfile successfully deleted.

02 -===- N:\02 - Stella By Starlight.flac Extracted successfully Conclusion: this track is CDDA with probability 100% Tempfile successfully deleted.

03 -===- N:\03 - Maiden Voyage.flac Extracted successfully Conclusion: this track is CDDA with probability 100% Tempfile successfully deleted.

04 -===- N:\04 - Long Long Summer.flac Extracted successfully Conclusion: this track is CDDA with probability 100% Tempfile successfully deleted.

05 -===- N:\05 - Destination Moon.flac Extracted successfully Conclusion: this track is CDDA with probability 100% Tempfile successfully deleted.

06 -===- N:\06 - Spring Can Really Hang You Up the Most.flac Extracted successfully Conclusion: this track is CDDA with probability 100% Tempfile successfully deleted.

07 -===- N:\07 - No Moon At All.flac Extracted successfully Conclusion: this track is CDDA with probability 100% Tempfile successfully deleted.

08 -===- N:\08 - Pork Pie.flac Extracted successfully Conclusion: this track is CDDA with probability 100% Tempfile successfully deleted.

09 -===- N:\09 - Samba Du Morpheus.flac Extracted successfully Conclusion: this track is CDDA with probability 100% Tempfile successfully deleted.

10 -===- N:\10 - All The Things You Are.flac Extracted successfully Conclusion: this track is CDDA with probability 100% Tempfile successfully deleted.

Finished at: среда, 11. 08. 2010. - 13:31.52 (operation time: 0:03.15)
 
Exact Audio Copy V0.99 prebeta 4 from 23. January 2008

EAC extraction logfile from 31. December 2009, 21:46

The New Morty Show / Straight Ahead

Used drive : TSSTcorpCD/DVDW TS-H552L Adapter: 5 ID: 0

Read mode : SecureUtilize accurate stream : YesDefeat audio cache : YesMake use of C2 pointers : No

Read offset correction : 6Overread into Lead-In and Lead-Out : NoFill up missing offset samples with silence : YesDelete leading and trailing silent blocks : NoNull samples used in CRC calculations : YesUsed interface : Native Win32 interface for Win NT & 2000Gap handling : Appended to previous track

Used output format : User Defined EncoderSelected bitrate : 128 kBit/sQuality : HighAdd ID3 tag : NoCommand line compressor : C:\Program Files\Exact Audio Copy\Flac\flac.exeAdditional command line options : -8 -V -T "ARTIST=%a" -T "TITLE=%t" -T "ALBUM=%g" -T "DATE=%y" -T "TRACKNUMBER=%n" -T "GENRE=%m" -T "COMMENT=EAC FLAC -8" %s

TOC of the extracted CD

Track | Start | Length | Start sector | End sector --------------------------------------------------------- 1 | 0:00.00 | 3:52.55 | 0 | 17454 2 | 3:52.55 | 5:10.09 | 17455 | 40713 3 | 9:02.64 | 4:33.71 | 40714 | 61259 4 | 13:36.60 | 5:48.40 | 61260 | 87399 5 | 19:25.25 | 2:05.32 | 87400 | 96806 6 | 21:30.57 | 5:00.65 | 96807 | 119371 7 | 26:31.47 | 3:09.20 | 119372 | 133566 8 | 29:40.67 | 3:51.10 | 133567 | 150901 9 | 33:32.02 | 4:35.50 | 150902 | 171576 10 | 38:07.52 | 3:32.65 | 171577 | 187541

Track 1

Filename C:\RIP\01 - Tico Tico.wav

Pre-gap length 0:00:02.00

Peak level 82.7 % Track quality 100.0 % Test CRC 1CBC5EEA Copy CRC 1CBC5EEA Track not present in AccurateRip database Copy OK

Track 2

Filename C:\RIP\02 - Stella By Starlight.wav

Peak level 80.1 % Track quality 99.9 % Test CRC 639D658E Copy CRC 639D658E Track not present in AccurateRip database Copy OK

Track 3

Filename C:\RIP\03 - Maiden Voyage.wav

Peak level 83.5 % Track quality 99.9 % Test CRC F234B2CD Copy CRC F234B2CD Track not present in AccurateRip database Copy OK

Track 4

Filename C:\RIP\04 - Long Long Summer.wav

Pre-gap length 0:00:01.30

Peak level 84.1 % Track quality 100.0 % Test CRC F2C6DCDE Copy CRC F2C6DCDE Track not present in AccurateRip database Copy OK

Track 5

Filename C:\RIP\05 - Destination Moon.wav

Peak level 82.2 % Track quality 100.0 % Test CRC 6D25AB02 Copy CRC 6D25AB02 Track not present in AccurateRip database Copy OK

Track 6

Filename C:\RIP\06 - Spring Can Really Hang You Up the Most.wav

Pre-gap length 0:00:01.89

Peak level 84.1 % Track quality 100.0 % Test CRC 6C2422AC Copy CRC 6C2422AC Track not present in AccurateRip database Copy OK

Track 7

Filename C:\RIP\07 - No Moon At All.wav

Pre-gap length 0:00:01.40

Peak level 80.5 % Track quality 99.9 % Test CRC 68AABC55 Copy CRC 68AABC55 Track not present in AccurateRip database Copy OK

Track 8

Filename C:\RIP\08 - Pork Pie.wav

Pre-gap length 0:00:01.22

Peak level 80.3 % Track quality 100.0 % Test CRC DFB724BE Copy CRC DFB724BE Track not present in AccurateRip database Copy OK

Track 9

Filename C:\RIP\09 - Samba Du Morpheus.wav

Pre-gap length 0:00:01.73

Peak level 80.5 % Track quality 100.0 % Test CRC DB08D9F8 Copy CRC DB08D9F8 Track not present in AccurateRip database Copy OK

Track 10

Filename C:\RIP\10 - All The Things You Are.wav

Pre-gap length 0:00:01.76

Peak level 100.0 % Track quality 99.9 % Test CRC ABD47F47 Copy CRC ABD47F47 Track not present in AccurateRip database Copy OK

None of the tracks are present in the AccurateRip database

No errors occurred

End of status report
 
REM GENRE SwingREM DATE 2000REM DISCID 8609C40AREM COMMENT "ExactAudioCopy v0.99pb4"PERFORMER "The New Morty Show"TITLE "Straight Ahead"FILE "01 - Tico Tico.wav" WAVE TRACK 01 AUDIO TITLE "Tico Tico" PERFORMER "The New Morty Show" INDEX 01 00:00:00FILE "02 - Stella By Starlight.wav" WAVE TRACK 02 AUDIO TITLE "Stella By Starlight" PERFORMER "The New Morty Show" INDEX 01 00:00:00FILE "03 - Maiden Voyage.wav" WAVE TRACK 03 AUDIO TITLE "Maiden Voyage" PERFORMER "The New Morty Show" INDEX 01 00:00:00 TRACK 04 AUDIO TITLE "Long Long Summer" PERFORMER "The New Morty Show" INDEX 00 04:32:48FILE "04 - Long Long Summer.wav" WAVE INDEX 01 00:00:00FILE "05 - Destination Moon.wav" WAVE TRACK 05 AUDIO TITLE "Destination Moon" PERFORMER "The New Morty Show" INDEX 01 00:00:00 TRACK 06 AUDIO TITLE "Spring Can Really Hang You Up the Most" PERFORMER "The New Morty Show" INDEX 00 02:03:40FILE "06 - Spring Can Really Hang You Up the Most.wav" WAVE INDEX 01 00:00:00 TRACK 07 AUDIO TITLE "No Moon At All" PERFORMER "The New Morty Show" INDEX 00 04:59:35FILE "07 - No Moon At All.wav" WAVE INDEX 01 00:00:00 TRACK 08 AUDIO TITLE "Pork Pie" PERFORMER "The New Morty Show" INDEX 00 03:08:03FILE "08 - Pork Pie.wav" WAVE INDEX 01 00:00:00 TRACK 09 AUDIO TITLE "Samba Du Morpheus" PERFORMER "The New Morty Show" INDEX 00 03:49:30FILE "09 - Samba Du Morpheus.wav" WAVE INDEX 01 00:00:00 TRACK 10 AUDIO TITLE "All The Things You Are" PERFORMER "The New Morty Show" INDEX 00 04:33:68FILE "10 - All The Things You Are.wav" WAVE INDEX 01 00:00:00
   

Трекер:  [ 27-Янв-2012 15:58 ]

  

Скачать .torrent

Размер .torrent файла 6 KB


Размер: 276 MB
Хэш (hash) релиза: 2f566b827de37cddd496fc35318048b79999eb84

Еще никто не оставлял запись к записи скачать торрент The New Morty Show — Straight Ahead — 2000, FLAC . Будь первым!

!Обратная связь