Скачать через торрент музыку Ben Webster - There Is No Greater Love - 1965, FLAC бесплатно без регистрации torrent

Если у вас наблюдаются проблемы со скриншотами, переходом по ссылками, скачиванием торрентов - проблемы в блокировщике рекламы AdBlock. #хорошегоДня!


Статистика раздачи
Размер:  198 MB   |    Зарегистрирован:  5 лет 8 месяцев   |    .torrent скачан:  45 раз   |   
Раздают:  1  
   
Загрузка...
 
Автор Сообщение

Umakiro

avatar Umakiro


Ben Webster - There Is No Greater Love

Жанр: Jazz, Mainstream Jazz, Swing
Год выпуска диска: 1965
Производитель диска: Germany
Аудио кодек: FLAC
Тип рипа: image+.cue
Битрейт аудио: lossless
Продолжительность: 38:48
Трэклист:
01. Easy to Love (4:25)
02. Stardust (3:52)
03. There Is No Greater Love (4:41)
04. Close Your Eyes (5:05)
05. What's New? (4:31)
06. Yesterdays (5:54)
07. Autumn Leaves (5:22)
08. I Got It Bad (and That Ain't Good) (4:58)

Доп. информация:
Kenny Drew Piano
Niels-Henning Ørsted Pedersen Bass
Alex Riel Drums
Ben Webster Sax (Tenor)

Рип с оригинального CD
Exact Audio Copy V0.99 prebeta 4 from 23. January 2008

Отчёт EAC об извлечении, выполненном 4. апреля 2009, 15:46

Ben Webster / There Is No Greater Love

Дисковод: TEAC DV-W28SLCTF Adapter: 4 ID: 1

Режим чтения : Достоверность
Использование точного потока : Да
Отключение кэша аудио : Да
Использование указателей C2 : Нет

Коррекция смещения при чтении : 48
Способность читать области Lead-in и Lead-out : Нет
Заполнение пропущенных сэмплов тишиной : Да
Удаление блоков с тишиной в начале и конце : Нет
При вычислениях CRC использовались нулевые сэмплы : Да
Интерфейс : Установленный внешний ASPI-интерфейс

Выходной формат : Пользовательский кодировщик
Выбранный битрейт : 1024 kBit/s
Качество : Высокий
Добавление ID3-тэга : Нет
Утилита сжатия : C:\Program Files\FLAC\flac.exe
Дополнительные параметры : -V -8 -T "artist=%a" -T "title=%t" -T "album=%g" -T "date=%y" -T "tracknumber=%n" -T "genre=%m" %s

TOC извлечённого CD

Трек | Старт | Длительность | Начальный сектор | Конечный сектор
---------------------------------------------------------------------
1 | 0:00.00 | 4:24.65 | 0 | 19864
2 | 4:24.65 | 3:51.70 | 19865 | 37259
3 | 8:16.60 | 4:41.02 | 37260 | 58336
4 | 12:57.62 | 5:05.33 | 58337 | 81244
5 | 18:03.20 | 4:30.72 | 81245 | 101566
6 | 22:34.17 | 5:53.63 | 101567 | 128104
7 | 28:28.05 | 5:21.62 | 128105 | 152241
8 | 33:49.67 | 4:57.65 | 152242 | 174581

Характеристики диапазона извлечения и сообщения об ошибках

Выбранный диапазон

Имя файла F:\раздачи\webster\Ben Webster - There Is No Greater Love.wav

Пиковый уровень 99.9 %
Качество диапазона 99.9 %
CRC копии EB190734
Копирование... OK

Ошибок не произошло

AccurateRip: сводка

Трек 1 нет в базе данных
Трек 2 нет в базе данных
Трек 3 нет в базе данных
Трек 4 нет в базе данных
Трек 5 нет в базе данных
Трек 6 нет в базе данных
Трек 7 нет в базе данных
Трек 8 нет в базе данных

Ни одного трека нет в базе AccurateRip

Конец отчёта


Трекер:  [ 27-Янв-2012 15:56 ]

  

Скачать .torrent

Размер .torrent файла 16 KB


Размер: 198 MB
Хэш (hash) релиза: 1789ffb727d5b1141156385938fc171cec690cff

Еще никто не оставлял запись к записи скачать торрент Ben Webster - There Is No Greater Love - 1965, FLAC . Будь первым!

!Обратная связь