Скачать через торрент музыку Duke Ellington - Second Sacred Concert бесплатно без регистрации torrent

Если у вас наблюдаются проблемы со скриншотами, переходом по ссылками, скачиванием торрентов - проблемы в блокировщике рекламы AdBlock. #хорошегоДня!


Статистика раздачи
Размер:  388 MB   |    Зарегистрирован:  5 лет 8 месяцев   |    .torrent скачан:  48 раз   |   
Раздают:  1  
   
Загрузка...
 
Автор Сообщение

Umakiro

avatar Umakiro


Duke Ellington - Second Sacred Concert

Жанр: Big Band, Swing
Страна-производитель диска: Россия
Год издания диска: 2000
Издатель (лейбл): ADA Sound Ltd.
Аудиокодек: APE (*.ape)
Тип рипа: image+.cue
Битрейт аудио: lossless
Продолжительность: 01:15:51
Источник (релизер): Рип с диска.
Наличие сканов в содержимом раздачи: да

Треклист:

01. Praise God
02. Supreme Being
03. Heaven
04. Something About Believing
05. Almighty God
06. The Shepherd
07.It's Freedom
08. Meditation
09. The Biggest And Busiest Intersection
10. T.G.T.T.
11. Praise God And Dance


Personnel:

Duke Ellington - p
Johnny Hodges, Harry Carney, Russell Procope, Paul Gonsalves, Jimmy Hamilton - reeds
Cat Anderson, Cootie Williams, Mercer Ellington, Herbie Jones, Money Johnson - tp
Lawrence Brown, Buster Cooper, Benny Green - tb
Chuck Connors - Btb
Jeff Castleman - b
Sam Woodyard, Steve Little - dr
Alice Babs, Devonne Gardner, Trish Turner, Roscoe Gill - voc
 
Exact Audio Copy V1.0 beta 3 from 29. August 2011

Отчёт EAC об извлечении, выполненном 31. октября 2011, 20:11

Duke Ellington / Second Sacred Concert

Дисковод: Optiarc DVD RW AD-5200A Adapter: 0 ID: 1

Режим чтения : ДостоверностьИспользование точного потока : ДаОтключение кэша аудио : ДаИспользование указателей C2 : Нет

Коррекция смещения при чтении : 48Способность читать области Lead-in и Lead-out : НетЗаполнение пропущенных сэмплов тишиной : ДаУдаление блоков с тишиной в начале и конце : НетПри вычислениях CRC использовались нулевые сэмплы : ДаИнтерфейс : Установленный внешний ASPI-интерфейс

Выходной формат : Пользовательский кодировщикВыбранный битрейт : 128 kBit/sКачество : ВысокийДобавление ID3-тега : НетУтилита сжатия : C:\Program Files\Monkey's Audio\MAC.exeДополнительные параметры : %source% %dest% -c3000

TOC извлечённого CD

Трек | Старт | Длительность | Начальный сектор | Конечный сектор --------------------------------------------------------------------- 1 | 0:00.00 | 3:13.42 | 0 | 14516 2 | 3:13.42 | 11:49.23 | 14517 | 67714 3 | 15:02.65 | 4:56.72 | 67715 | 89986 4 | 19:59.62 | 8:15.18 | 89987 | 127129 5 | 28:15.05 | 6:34.42 | 127130 | 156721 6 | 34:49.47 | 7:14.70 | 156722 | 189341 7 | 42:04.42 | 13:04.50 | 189342 | 248191 8 | 55:09.17 | 3:11.65 | 248192 | 262581 9 | 58:21.07 | 4:02.23 | 262582 | 280754 10 | 62:23.30 | 2:30.22 | 280755 | 292026 11 | 64:53.52 | 10:57.28 | 292027 | 341329

Характеристики диапазона извлечения и сообщения об ошибках

Выбранный диапазон

Имя файла F:\2000.Duke Ellington - Second Sacred Concert\Duke Ellington - Second Sacred Concert.wav

Пиковый уровень 100.0 % Скорость извлечения 3.8 X Качество диапазона 99.9 % CRC теста A4EC9A78 CRC копии A4EC9A78 Копирование... OK

Ошибок не произошло

AccurateRip: сводка

Трек 1 точность не определена (достоверность 5) [408F2389], AccurateRip вернул [01A58D6B] (AR v2)Трек 2 точность не определена (достоверность 5) [51F7C0D1], AccurateRip вернул [63B04A6D] (AR v2)Трек 3 точность не определена (достоверность 5) [3AD92011], AccurateRip вернул [D9E1250E] (AR v2)Трек 4 точность не определена (достоверность 5) [BC4063F5], AccurateRip вернул [49F9915B] (AR v2)Трек 5 точность не определена (достоверность 5) [D445B68F], AccurateRip вернул [CCFF6F0A] (AR v2)Трек 6 точность не определена (достоверность 5) [8EC179CC], AccurateRip вернул [C516FCAC] (AR v2)Трек 7 точность не определена (достоверность 5) [A75B74D0], AccurateRip вернул [684070E0] (AR v2)Трек 8 точность не определена (достоверность 5) [4D344FCB], AccurateRip вернул [A8BA739B] (AR v2)Трек 9 точность не определена (достоверность 5) [30A47EC9], AccurateRip вернул [1F038DFB] (AR v2)Трек 10 точность не определена (достоверность 4) [EB73A622], AccurateRip вернул [A18A24BD] (AR v2)Трек 11 точность не определена (достоверность 3) [8493917E], AccurateRip вернул [FD5380B3] (AR v2)

Ни один трек не прошёл проверки на точностьВ вашей базе может быть иной вариант штамповки диска

Конец отчёта

==== Контрольная сумма отчёта 6DAB73D623BA86090B3FC045E6175A13A2400F785802A38BA03DFFBC89DC0DE8 ====
 
REM GENRE JazzREM DATE 2000REM DISCID 9311C70BREM COMMENT "ExactAudioCopy v1.0b3"PERFORMER " Duke Ellington"TITLE "Second Sacred Concert"FILE "Duke Ellington - Second Sacred Concert.ape" WAVE TRACK 01 AUDIO TITLE "Praise God" PERFORMER " Duke Ellington" INDEX 01 00:00:00 TRACK 02 AUDIO TITLE "Supreme Being" PERFORMER " Duke Ellington" INDEX 00 03:09:65 INDEX 01 03:13:42 TRACK 03 AUDIO TITLE "Heaven" PERFORMER " Duke Ellington" INDEX 00 15:00:07 INDEX 01 15:02:65 TRACK 04 AUDIO TITLE "Something About Believing" PERFORMER " Duke Ellington" INDEX 00 19:57:60 INDEX 01 19:59:62 TRACK 05 AUDIO TITLE "Almighty God" PERFORMER " Duke Ellington" INDEX 00 28:12:55 INDEX 01 28:15:05 TRACK 06 AUDIO TITLE "The Shepherd" PERFORMER " Duke Ellington" INDEX 00 34:47:22 INDEX 01 34:49:47 TRACK 07 AUDIO TITLE "It's Freedom" PERFORMER " Duke Ellington" INDEX 00 42:00:17 INDEX 01 42:04:42 TRACK 08 AUDIO TITLE "Meditation" PERFORMER " Duke Ellington" INDEX 00 55:05:07 INDEX 01 55:09:17 TRACK 09 AUDIO TITLE "The Biggest And Busiest Intersection" PERFORMER " Duke Ellington" INDEX 00 58:17:15 INDEX 01 58:21:07 TRACK 10 AUDIO TITLE "T.G.T.T." PERFORMER " Duke Ellington" INDEX 00 62:19:25 INDEX 01 62:23:30 TRACK 11 AUDIO TITLE "Praise God And Dance" PERFORMER " Duke Ellington" INDEX 00 64:49:00 INDEX 01 64:53:52


Трекер:  [ 27-Янв-2012 15:55 ]

  

Скачать .torrent

Размер .torrent файла 16 KB


Размер: 388 MB
Хэш (hash) релиза: 5e3348c5399e4823cefdb04a4318db70eb29b3f5

Еще никто не оставлял запись к записи скачать торрент Duke Ellington - Second Sacred Concert . Будь первым!

!Обратная связь