Скачать через торрент музыку Duke Ellington - Concert Of Sacred Music - 2001, APE бесплатно без регистрации torrent

Если у вас наблюдаются проблемы со скриншотами, переходом по ссылками, скачиванием торрентов - проблемы в блокировщике рекламы AdBlock. #хорошегоДня!


Статистика раздачи
Размер:  242 MB   |    Зарегистрирован:  5 лет 8 месяцев   |    .torrent скачан:  31 раз   |   
Раздают:  1  
   
Загрузка...
 
Автор Сообщение

Umakiro

avatar Umakiro


Duke Ellington - Concert Of Sacred Music

Жанр: Big Band, Swing
Страна-производитель диска: Россия
Год издания диска: 2001
Издатель (лейбл): Московский опытный завод "Грамзапись"
Аудиокодек: APE (*.ape)
Тип рипа: image+.cue
Битрейт аудио: lossless
Продолжительность: 00:51:06
Источник (релизер): Рип с диска.
Наличие сканов в содержимом раздачи: да

Треклист:

01. In The Beginning God
02. Tell Me It's The Truth
03. Come Sunday
04. The Lord's Prayer
05. Come Sunday
06. Will You Be There - Ain't But The One
07. New World A-Coming
08. David Danced Before The Lord With All His Might
Recorded at the New York on December 26, 1965.
 
Exact Audio Copy V1.0 beta 3 from 29. August 2011

Отчёт EAC об извлечении, выполненном 1. ноября 2011, 18:54

Duke Ellington / Concert Of Sacred Music (1965)

Дисковод: Optiarc DVD RW AD-5200A Adapter: 0 ID: 1

Режим чтения : ДостоверностьИспользование точного потока : ДаОтключение кэша аудио : ДаИспользование указателей C2 : Нет

Коррекция смещения при чтении : 48Способность читать области Lead-in и Lead-out : НетЗаполнение пропущенных сэмплов тишиной : ДаУдаление блоков с тишиной в начале и конце : НетПри вычислениях CRC использовались нулевые сэмплы : ДаИнтерфейс : Установленный внешний ASPI-интерфейс

Выходной формат : Пользовательский кодировщикВыбранный битрейт : 128 kBit/sКачество : ВысокийДобавление ID3-тега : НетУтилита сжатия : C:\Program Files\Monkey's Audio\MAC.exeДополнительные параметры : %source% %dest% -c3000

TOC извлечённого CD

Трек | Старт | Длительность | Начальный сектор | Конечный сектор --------------------------------------------------------------------- 1 | 0:00.32 | 15:53.68 | 32 | 71574 2 | 15:54.25 | 2:49.60 | 71575 | 84309 3 | 18:44.10 | 3:53.27 | 84310 | 101811 4 | 22:37.37 | 2:42.25 | 101812 | 113986 5 | 25:19.62 | 6:05.13 | 113987 | 141374 6 | 31:25.00 | 4:42.42 | 141375 | 162566 7 | 36:07.42 | 8:26.73 | 162567 | 200589 8 | 44:34.40 | 6:31.67 | 200590 | 229981

Характеристики диапазона извлечения и сообщения об ошибках

Выбранный диапазон

Имя файла F:\2001.Duke Ellington - Concert Of Sacred Music (1965)\Duke Ellington - Concert Of Sacred Music (1965).wav

Пиковый уровень 100.0 % Скорость извлечения 3.6 X Качество диапазона 99.9 % CRC теста F6CC3E6D CRC копии F6CC3E6D Копирование... OK

Ошибок не произошло

AccurateRip: сводка

Трек 1 отсутствует в базе данныхТрек 2 отсутствует в базе данныхТрек 3 отсутствует в базе данныхТрек 4 отсутствует в базе данныхТрек 5 отсутствует в базе данныхТрек 6 отсутствует в базе данныхТрек 7 отсутствует в базе данныхТрек 8 отсутствует в базе данных

Ни одного трека нет в базе AccurateRip

Конец отчёта

==== Контрольная сумма отчёта C013D84242FB61667C60EF81EFF5B59887BB57A44256B6162B6D0BC406A5E25F ====
 
REM GENRE JazzREM DATE 2001REM DISCID 7A0BFA08REM COMMENT "ExactAudioCopy v1.0b3"PERFORMER "Duke Ellington"TITLE "Concert Of Sacred Music (1965)"FILE "Duke Ellington - Concert Of Sacred Music (1965).ape" WAVE TRACK 01 AUDIO TITLE "In The Beginning God" PERFORMER "Duke Ellington" INDEX 00 00:00:00 INDEX 01 00:00:32 TRACK 02 AUDIO TITLE "Tell Me It's The Truth" PERFORMER "Duke Ellington" INDEX 01 15:54:25 TRACK 03 AUDIO TITLE "Come Sunday" PERFORMER "Duke Ellington" INDEX 01 18:44:10 TRACK 04 AUDIO TITLE "The Lord's Prayer" PERFORMER "Duke Ellington" INDEX 01 22:37:37 TRACK 05 AUDIO TITLE "Come Sunday" PERFORMER "Duke Ellington" INDEX 01 25:19:62 TRACK 06 AUDIO TITLE "Will You Be There - Ain't But The One" PERFORMER "Duke Ellington" INDEX 01 31:25:00 TRACK 07 AUDIO TITLE "New World A-Coming" PERFORMER "Duke Ellington" INDEX 01 36:07:42 TRACK 08 AUDIO TITLE "David Danced Before The Lord With All His Might" PERFORMER "Duke Ellington" INDEX 01 44:34:40


Трекер:  [ 27-Янв-2012 15:54 ]

  

Скачать .torrent

Размер .torrent файла 20 KB


Размер: 242 MB
Хэш (hash) релиза: 0f8d2b9837fd3c529c87bd19f1a1a2dcdc4f42fe

Еще никто не оставлял запись к записи скачать торрент Duke Ellington - Concert Of Sacred Music - 2001, APE . Будь первым!

!Обратная связь