Скачать через торрент музыку Louis Armstrong - Meets the Girls - 2003, APE бесплатно без регистрации torrent

Если у вас наблюдаются проблемы со скриншотами, переходом по ссылками, скачиванием торрентов - проблемы в блокировщике рекламы AdBlock. #хорошегоДня!


Статистика раздачи
Размер:  203 MB   |    Зарегистрирован:  5 лет 8 месяцев   |    .torrent скачан:  42 раза   |   
Раздают:  1  
   
Загрузка...
 
Автор Сообщение

Umakiro

avatar Umakiro


Louis Armstrong - Meets the Girls

Жанр: Swing, Vocal Jazz
Страна-производитель диска: Франция
Год издания диска: 2003
Издатель (лейбл): Saga Jazz
Номер по каталогу: 066 429-2
Аудиокодек: APE (*.ape)
Тип рипа: image+.cue
Битрейт аудио: lossless
Продолжительность: 75:27
Источник (релизер): Pepeyo (hqshare)
Наличие сканов в содержимом раздачи: да

Треклист:
01. The Frim Fram Sauce (feat. Ella Fitzgerald) - 3:11
02. You Won't Be Satisfied (feat. Ella Fitzgerald) - 2:52
03. Countin' the Blues (feat. Ma Rainey) - 3:09
04. Everybody Loves My Baby (feat. Alberta Hunter as Josephine Beatty) - 2:38
05. Anybody Here Want to Try My Cabbage (feat. Maggie Jones) - 3:15
06. Cake Walkin' Babies from Home (feat. Eva Taylor) - 2:59
07. St. Louis Blues (feat. Bessie Smith) - 3:04
08. Reckless Blues (feat. Bessie Smith) - 2:56
09. The World's Jazz Crazy and So Am I (feat. Trixie Smith) - 2:59
10. Shipwrecked Blues (feat. Clara Smith) - 3:14
11. You Can't Lose a Broken Heart (feat. Billie Holiday) - 3:19
12. My Sweet Hunck O'Trash (feat. Billie Holiday) - 3:29
13. He Likes It Slow (feat. Butterbeans and Susie) - 2:49
14. Pratts City Blues (feat. Bertha "Chippie" Hill) - 2:52
15. Big Butter and Egg Man (feat. May Alix) - 3:04
16. That's When I'll Come Back to You (feat. Lillian Armstrong) - 2:56
17. Too Busy (feat. Lillie Deik Christian) - 2:53
18. Funny Feathers (feat. Victoria Spivey) - 3:19
19. Pennies from Heaven (feat. Frances Langford, Bing Crosby, Louis Armstrong) - 4:21
20. I Cried to You (feat. Velma Middleton) - 4:32
21. That's Is My Desire (feat. Velma Middleton) - 4:45
22. Dream a Little Dream of Me (feat. Ella Fitzgerald) - 3:03
23. Oops! (feat. Ella Fitzgerald) - 3:08
 
EAC extraction logfile from 12. October 2007, 19:44 for CDLouis Armstrong / Meets The Girls

Used drive : HL-DT-STDVDRAM GSA-H10N Adapter: 0 ID: 0Read mode : Secure with NO C2, accurate stream, disable cacheRead offset correction : 667Overread into Lead-In and Lead-Out : No

Used output format : Internal WAV Routines 44.100 Hz; 16 Bit; Stereo

Other options : Fill up missing offset samples with silence : Yes Delete leading and trailing silent blocks : No Native Win32 interface for Win NT & 2000

Range status and errorsSelected range Filename C:\Documents and Settings\Amra\Mis documentos\Louis Armstrong - Meets The Girls\Louis Armstrong - Meets The Girls.wav

Peak level 99.7 % Range quality 100.0 % CRC 722DAC6A Copy OK

No errors occured

End of status report
 
REM GENRE JazzREM DATE 2003REM DISCID 4D11AF17REM COMMENT "ExactAudioCopy v0.95b4"PERFORMER "Louis Armstrong"TITLE "Meets the Girls"FILE "Louis Armstrong - Meets the Girls.wav" WAVE TRACK 01 AUDIO TITLE "The Frim Fram Sauce" PERFORMER "Louis Armstrong" ISRC FRZ024680420 INDEX 00 00:00:00 INDEX 01 00:00:32 TRACK 02 AUDIO TITLE "You Won't Be Satisfied" PERFORMER "Louis Armstrong" ISRC FRZ024680430 INDEX 00 03:12:48 INDEX 01 03:14:43 TRACK 03 AUDIO TITLE "Countin' the Blues" PERFORMER "Louis Armstrong" ISRC FRZ022480030 INDEX 00 06:07:42 INDEX 01 06:09:37 TRACK 04 AUDIO TITLE "Everybody Loves My Baby" PERFORMER "Louis Armstrong" ISRC FRZ022480040 INDEX 00 09:19:01 INDEX 01 09:20:71 TRACK 05 AUDIO TITLE "Anybody Here Want to Try My Cabbage" PERFORMER "Louis Armstrong" ISRC FRZ022480050 INDEX 00 12:00:17 INDEX 01 12:02:12 TRACK 06 AUDIO TITLE "Cake Walkin' Babies from Home" PERFORMER "Louis Armstrong" ISRC FRZ022580100 INDEX 00 15:18:04 INDEX 01 15:19:74 TRACK 07 AUDIO TITLE "St. Louis Blues" PERFORMER "Louis Armstrong" ISRC FRZ022580110 INDEX 00 18:20:08 INDEX 01 18:22:03 TRACK 08 AUDIO TITLE "Reckless Blues" PERFORMER "Louis Armstrong" ISRC FRZ022580120 INDEX 00 21:26:39 INDEX 01 21:28:34 TRACK 09 AUDIO TITLE "The World's Jazz Crazy and So Am I" PERFORMER "Louis Armstrong" ISRC FRZ022580130 INDEX 00 24:25:47 INDEX 01 24:27:42 TRACK 10 AUDIO TITLE "Shipwrecked Blues" PERFORMER "Louis Armstrong" ISRC FRZ022580140 INDEX 00 27:27:65 INDEX 01 27:29:60 TRACK 11 AUDIO TITLE "You Can't Lose a Broken Heart" PERFORMER "Louis Armstrong" ISRC FRZ024980580 INDEX 00 30:44:37 INDEX 01 30:46:32 TRACK 12 AUDIO TITLE "My Sweet Hunck O'Trash" PERFORMER "Louis Armstrong" ISRC FRZ024980590 INDEX 00 34:00:16 INDEX 01 34:02:11 TRACK 13 AUDIO TITLE "He Likes It Slow" PERFORMER "Louis Armstrong" ISRC FRZ024980600 INDEX 00 37:22:02 INDEX 01 37:23:72 TRACK 14 AUDIO TITLE "Pratts City Blues" PERFORMER "Louis Armstrong" ISRC FRZ022680230 INDEX 00 40:13:44 INDEX 01 40:15:39 TRACK 15 AUDIO TITLE "Big Butter and Egg Man" PERFORMER "Louis Armstrong" ISRC FRZ022680240 INDEX 00 43:05:35 INDEX 01 43:07:30 TRACK 16 AUDIO TITLE "That's When I'll Come Back to You" PERFORMER "Louis Armstrong" ISRC FRZ022780220 INDEX 00 46:12:34 INDEX 01 46:14:29 TRACK 17 AUDIO TITLE "Too Busy" PERFORMER "Louis Armstrong" ISRC FRZ022880150 INDEX 00 49:10:72 INDEX 01 49:12:67 TRACK 18 AUDIO TITLE "Funny Feathers" PERFORMER "Louis Armstrong" ISRC FRZ022980300 INDEX 00 52:06:61 INDEX 01 52:08:56 TRACK 19 AUDIO TITLE "Pennies from Heaven" PERFORMER "Louis Armstrong" ISRC FRZ023680190 INDEX 00 55:24:37 INDEX 01 55:26:32 TRACK 20 AUDIO TITLE "I Cried for You" PERFORMER "Louis Armstrong" ISRC FRZ024780970 INDEX 00 59:47:70 INDEX 01 59:49:65 TRACK 21 AUDIO TITLE "That's My Desire" PERFORMER "Louis Armstrong" ISRC FRZ024780980 INDEX 00 64:23:17 INDEX 01 64:25:12 TRACK 22 AUDIO TITLE "Dream a Little Dream of Me" PERFORMER "Louis Armstrong" ISRC FRZ025080580 INDEX 00 69:10:69 INDEX 01 69:12:64 TRACK 23 AUDIO TITLE "Oops!" PERFORMER "Louis Armstrong" ISRC FRZ025180800 INDEX 00 72:16:59 INDEX 01 72:18:54


Трекер:  [ 27-Янв-2012 15:54 ]

  

Скачать .torrent

Размер .torrent файла 17 KB


Размер: 203 MB
Хэш (hash) релиза: cd83853cc030c8aba1bbcafebc8c7880d5a911d7

Еще никто не оставлял запись к записи скачать торрент Louis Armstrong - Meets the Girls - 2003, APE . Будь первым!

!Обратная связь