Скачать через торрент музыку Duke Ellington — The Popular Duke Ellington бесплатно без регистрации torrent

Если у вас наблюдаются проблемы со скриншотами, переходом по ссылками, скачиванием торрентов - проблемы в блокировщике рекламы AdBlock. #хорошегоДня!


Статистика раздачи
Размер:  314 MB   |    Зарегистрирован:  5 лет 8 месяцев   |    .torrent скачан:  48 раз   |   
Раздают:  1  
   
Загрузка...
 
Автор Сообщение

Umakiro

avatar Umakiro


Duke Ellington — The Popular Duke Ellington

Жанр: Big Band
Год издания диска: 2002
Лейбл: RCA Victor
Bar code: 090266388028
Аудио кодек: FLAC (*.flac)
Тип рипа: tracks+.cue
Битрейт аудио: lossless
Продолжительность: 51:36
Релизер: Bezz
Сканы: есть

Треклист:
01. Take The 'A' Train (4:41)
02. I Got It Bad (And That Ain't Good) (2:37)
03. Perdido (3:15)
04. Mood Indigo (5:10)
05. Black And Tan Fantasy (5:12)
06. The Twitch (3:12)
07. Solitude (3:37)
08. Do Nothin' Till You Hear From Me (1:55)
09. The Mooche (5:36)
10. Sophisticated Lady (3:02)
11. Creole Love Call (3:57)
12. Caravan (5:27)
13. Wings And Things (1:59)
14. Do Nothin' Till You Hear From Me (1:56)

Rec.: Hollywood, CA, May 9 (1, 2, 9, 12, 14), 10 (5.6. 10) and 11 (3, 4, 7, 8, 11, 13), 1966.
 
 
Exact Audio Copy V0.99 prebeta 5 from 4. May 2009

EAC extraction logfile from 23. July 2010, 12:33

Duke Ellington / The Popular Duke Ellington

Used drive : HL-DT-STDVDRAM GH20NS15 Adapter: 1 ID: 2

Read mode : SecureUtilize accurate stream : YesDefeat audio cache : YesMake use of C2 pointers : No

Read offset correction : 667Overread into Lead-In and Lead-Out : NoFill up missing offset samples with silence : YesDelete leading and trailing silent blocks : NoNull samples used in CRC calculations : YesUsed interface : Installed external ASPI interfaceGap handling : Appended to previous track

Used output format : User Defined EncoderSelected bitrate : 128 kBit/sQuality : HighAdd ID3 tag : NoCommand line compressor : C:\Archivos de programa\Exact Audio Copy\FLAC\FLAC.EXEAdditional command line options : -8 -V -T "ARTIST=%a" -T "TITLE=%t" -T "ALBUM=%g" -T "DATE=%y" -T "TRACKNUMBER=%n" -T "TOTALTRACKS=%x" -T "GENRE=%m" -T "ALBUM ARTIST=%v" -T "ALBUMARTIST=%v" -T "COMMENT=EAC V0.99 prebeta 5, Secure Mode, Test & Copy, Accurat

TOC of the extracted CD

Track | Start | Length | Start sector | End sector --------------------------------------------------------- 1 | 0:00.00 | 4:40.42 | 0 | 21041 2 | 4:40.42 | 2:36.55 | 21042 | 32796 3 | 7:17.22 | 3:14.40 | 32797 | 47386 4 | 10:31.62 | 5:10.35 | 47387 | 70671 5 | 15:42.22 | 5:12.00 | 70672 | 94071 6 | 20:54.22 | 3:11.40 | 94072 | 108436 7 | 24:05.62 | 3:36.73 | 108437 | 124709 8 | 27:42.60 | 1:55.02 | 124710 | 133336 9 | 29:37.62 | 5:36.00 | 133337 | 158536 10 | 35:13.62 | 3:02.35 | 158537 | 172221 11 | 38:16.22 | 3:56.65 | 172222 | 189986 12 | 42:13.12 | 5:27.23 | 189987 | 214534 13 | 47:40.35 | 1:59.27 | 214535 | 223486 14 | 49:39.62 | 1:56.33 | 223487 | 232219

Track 1

Filename K:\Duke Ellington - The Popular Duke Ellington (1966) [FLAC] {RCAVICTOR}\01 - Take The 'A' Train.wav

Pre-gap length 0:00:02.00

Peak level 100.0 % Track quality 99.9 % Test CRC 97F15788 Copy CRC 97F15788 Accurately ripped (confidence 2) [7FBBC3EF] Copy OK

Track 2

Filename K:\Duke Ellington - The Popular Duke Ellington (1966) [FLAC] {RCAVICTOR}\02 - I Got It Bad (and That Ain't Good).wav

Pre-gap length 0:00:02.88

Peak level 99.4 % Track quality 99.9 % Test CRC DE502882 Copy CRC DE502882 Accurately ripped (confidence 2) [9A8B52DA] Copy OK

Track 3

Filename K:\Duke Ellington - The Popular Duke Ellington (1966) [FLAC] {RCAVICTOR}\03 - Perdido.wav

Pre-gap length 0:00:00.93

Peak level 99.4 % Track quality 100.0 % Test CRC D94CC60C Copy CRC D94CC60C Accurately ripped (confidence 2) [C2CAE0BA] Copy OK

Track 4

Filename K:\Duke Ellington - The Popular Duke Ellington (1966) [FLAC] {RCAVICTOR}\04 - Mood Indigo.wav

Pre-gap length 0:00:01.46

Peak level 99.4 % Track quality 99.9 % Test CRC 95B9596C Copy CRC 95B9596C Accurately ripped (confidence 2) [C1A62E93] Copy OK

Track 5

Filename K:\Duke Ellington - The Popular Duke Ellington (1966) [FLAC] {RCAVICTOR}\05 - Black and Tan Fantasy.wav

Pre-gap length 0:00:01.66

Peak level 99.4 % Track quality 100.0 % Test CRC 59E048FB Copy CRC 59E048FB Accurately ripped (confidence 2) [87AA986A] Copy OK

Track 6

Filename K:\Duke Ellington - The Popular Duke Ellington (1966) [FLAC] {RCAVICTOR}\06 - The Twitch.wav

Pre-gap length 0:00:01.97

Peak level 99.4 % Track quality 100.0 % Test CRC B6331B50 Copy CRC B6331B50 Accurately ripped (confidence 2) [F7CF78CD] Copy OK

Track 7

Filename K:\Duke Ellington - The Popular Duke Ellington (1966) [FLAC] {RCAVICTOR}\07 - Solitude.wav

Pre-gap length 0:00:02.80

Peak level 100.0 % Track quality 100.0 % Test CRC 67C2A5C5 Copy CRC 67C2A5C5 Accurately ripped (confidence 2) [C70C4983] Copy OK

Track 8

Filename K:\Duke Ellington - The Popular Duke Ellington (1966) [FLAC] {RCAVICTOR}\08 - Do Nothin' Till You Hear From Me.wav

Pre-gap length 0:00:03.06

Peak level 100.0 % Track quality 100.0 % Test CRC B1A86DBA Copy CRC B1A86DBA Accurately ripped (confidence 2) [A58A6B75] Copy OK

Track 9

Filename K:\Duke Ellington - The Popular Duke Ellington (1966) [FLAC] {RCAVICTOR}\09 - The Mooche.wav

Pre-gap length 0:00:02.02

Peak level 99.4 % Track quality 100.0 % Test CRC 87F4FE58 Copy CRC 87F4FE58 Cannot be verified as accurate (confidence 2) [AE034D24], AccurateRip returned [A2703432] Copy OK

Track 10

Filename K:\Duke Ellington - The Popular Duke Ellington (1966) [FLAC] {RCAVICTOR}\10 - Sophisticated Lady.wav

Pre-gap length 0:00:02.06

Peak level 99.4 % Track quality 100.0 % Test CRC 3C9DA7CF Copy CRC 3C9DA7CF Accurately ripped (confidence 2) [4C2C76DF] Copy OK

Track 11

Filename K:\Duke Ellington - The Popular Duke Ellington (1966) [FLAC] {RCAVICTOR}\11 - Creole Love Call.wav

Pre-gap length 0:00:01.69

Peak level 99.4 % Track quality 100.0 % Test CRC 31436752 Copy CRC 31436752 Accurately ripped (confidence 2) [B2F413CE] Copy OK

Track 12

Filename K:\Duke Ellington - The Popular Duke Ellington (1966) [FLAC] {RCAVICTOR}\12 - Caravan.wav

Pre-gap length 0:00:01.49

Peak level 99.4 % Track quality 100.0 % Test CRC FE435243 Copy CRC FE435243 Accurately ripped (confidence 2) [297D7646] Copy OK

Track 13

Filename K:\Duke Ellington - The Popular Duke Ellington (1966) [FLAC] {RCAVICTOR}\13 - Wings and Things.wav

Pre-gap length 0:00:01.93

Peak level 99.0 % Track quality 100.0 % Test CRC 97D0D49B Copy CRC 97D0D49B Accurately ripped (confidence 2) [8044218A] Copy OK

Track 14

Filename K:\Duke Ellington - The Popular Duke Ellington (1966) [FLAC] {RCAVICTOR}\14 - Do Nothin' Till You Hear From Me.wav

Pre-gap length 0:00:01.82

Peak level 99.5 % Track quality 100.0 % Test CRC 4959EF39 Copy CRC 4959EF39 Cannot be verified as accurate (confidence 2) [EC9066E9], AccurateRip returned [C297305C] Copy OK

12 track(s) accurately ripped 2 track(s) could not be verified as accurate

Some tracks could not be verified as accurate

No errors occurred

End of status report
 
REM GENRE JazzREM DATE 2002REM DISCID D50C180EREM COMMENT "ExactAudioCopy v0.99pb5"PERFORMER "Duke Ellington"TITLE "The Popular Duke Ellington"FILE "01 - Take The 'A' Train.wav" WAVE TRACK 01 AUDIO TITLE "Take The 'A' Train" PERFORMER "Duke Ellington" INDEX 01 00:00:00 TRACK 02 AUDIO TITLE "I Got It Bad (and That Ain't Good)" PERFORMER "Duke Ellington" INDEX 00 04:37:51FILE "02 - I Got It Bad (and That Ain't Good).wav" WAVE INDEX 01 00:00:00 TRACK 03 AUDIO TITLE "Perdido" PERFORMER "Duke Ellington" INDEX 00 02:35:60FILE "03 - Perdido.wav" WAVE INDEX 01 00:00:00 TRACK 04 AUDIO TITLE "Mood Indigo" PERFORMER "Duke Ellington" INDEX 00 03:13:05FILE "04 - Mood Indigo.wav" WAVE INDEX 01 00:00:00 TRACK 05 AUDIO TITLE "Black and Tan Fantasy" PERFORMER "Duke Ellington" INDEX 00 05:08:60FILE "05 - Black and Tan Fantasy.wav" WAVE INDEX 01 00:00:00 TRACK 06 AUDIO TITLE "The Twitch" PERFORMER "Duke Ellington" INDEX 00 05:10:02FILE "06 - The Twitch.wav" WAVE INDEX 01 00:00:00 TRACK 07 AUDIO TITLE "Solitude" PERFORMER "Duke Ellington" INDEX 00 03:08:55FILE "07 - Solitude.wav" WAVE INDEX 01 00:00:00 TRACK 08 AUDIO TITLE "Do Nothin' Till You Hear From Me" PERFORMER "Duke Ellington" INDEX 00 03:33:68FILE "08 - Do Nothin' Till You Hear From Me.wav" WAVE INDEX 01 00:00:00 TRACK 09 AUDIO TITLE "The Mooche" PERFORMER "Duke Ellington" INDEX 00 01:53:00FILE "09 - The Mooche.wav" WAVE INDEX 01 00:00:00 TRACK 10 AUDIO TITLE "Sophisticated Lady" PERFORMER "Duke Ellington" INDEX 00 05:33:70FILE "10 - Sophisticated Lady.wav" WAVE INDEX 01 00:00:00 TRACK 11 AUDIO TITLE "Creole Love Call" PERFORMER "Duke Ellington" INDEX 00 03:00:58FILE "11 - Creole Love Call.wav" WAVE INDEX 01 00:00:00 TRACK 12 AUDIO TITLE "Caravan" PERFORMER "Duke Ellington" INDEX 00 03:55:28FILE "12 - Caravan.wav" WAVE INDEX 01 00:00:00 TRACK 13 AUDIO TITLE "Wings and Things" PERFORMER "Duke Ellington" INDEX 00 05:25:28FILE "13 - Wings and Things.wav" WAVE INDEX 01 00:00:00 TRACK 14 AUDIO TITLE "Do Nothin' Till You Hear From Me" PERFORMER "Duke Ellington" INDEX 00 01:57:40FILE "14 - Do Nothin' Till You Hear From Me.wav" WAVE INDEX 01 00:00:00


Трекер:  [ 27-Янв-2012 15:53 ]

  

Скачать .torrent

Размер .torrent файла 7 KB


Размер: 314 MB
Хэш (hash) релиза: aaa6680b0654fa4f7a07ada40ef14dd258c07611

Еще никто не оставлял запись к записи скачать торрент Duke Ellington — The Popular Duke Ellington . Будь первым!

!Обратная связь