Скачать через торрент музыку Scott Joplin - The Piano Rags - 1994, FLAC бесплатно без регистрации torrent

Если у вас наблюдаются проблемы со скриншотами, переходом по ссылками, скачиванием торрентов - проблемы в блокировщике рекламы AdBlock. #хорошегоДня!


Статистика раздачи
Размер:  182 MB   |    Зарегистрирован:  5 лет 8 месяцев   |    .torrent скачан:  32 раза   |   
Раздают:  1  
   
Загрузка...
 
Автор Сообщение

Umakiro

avatar Umakiro


Scott Joplin - The Piano Rags

Жанр: Ragtime
Страна-производитель диска: USA
Год издания диска: 1994
Издатель (лейбл): Prestige Elite
Номер по каталогу: CDSGP 0118
Страна: USA
Аудиокодек: FLAC (*.flac)
Тип рипа: image+.cue
Битрейт аудио: lossless
Продолжительность: 41:24
Источник (релизер): garet jax (hqshare)
Наличие сканов в содержимом раздачи: да
Треклист:
01. The Entertainer (3:41)
02. Original Rags (3:42)
03. Cascades (2:57)
04. Maple Leaf Rag (3:19)
05. Stoptime Rag (3:00)
06. Easy Winner (3:29)
07. Weeping Willow Rag (3:30)
08. Magnetic Rag (3:17)
09. Solace (4:36)
10. Sugarcane (3:27)
11. Kismet Rag (3:08)
12. Pineapple Rag (3:18)
 
Exact Audio Copy V0.99 prebeta 4 from 23. January 2008

EAC extraction logfile from 4. November 2008, 21:15

Scott Joplin / The Piano Rags

Used drive : LITE-ON CD-RW SOHR-5238S Adapter: 1 ID: 1

Read mode : SecureUtilize accurate stream : YesDefeat audio cache : YesMake use of C2 pointers : No

Read offset correction : 6Overread into Lead-In and Lead-Out : NoFill up missing offset samples with silence : YesDelete leading and trailing silent blocks : NoNull samples used in CRC calculations : YesUsed interface : Installed external ASPI interface

Used output format : Internal WAV RoutinesSample format : 44.100 Hz; 16 Bit; Stereo

TOC of the extracted CD

Track | Start | Length | Start sector | End sector --------------------------------------------------------- 1 | 0:00.00 | 3:40.43 | 0 | 16542 2 | 3:40.43 | 3:42.20 | 16543 | 33212 3 | 7:22.63 | 2:57.37 | 33213 | 46524 4 | 10:20.25 | 3:18.38 | 46525 | 61412 5 | 13:38.63 | 3:00.00 | 61413 | 74912 6 | 16:38.63 | 3:29.00 | 74913 | 90587 7 | 20:07.63 | 3:30.00 | 90588 | 106337 8 | 23:37.63 | 3:17.00 | 106338 | 121112 9 | 26:54.63 | 4:36.00 | 121113 | 141812 10 | 31:30.63 | 3:27.00 | 141813 | 157337 11 | 34:57.63 | 3:08.37 | 157338 | 171474 12 | 38:06.25 | 3:18.18 | 171475 | 186342

Range status and errors

Selected range

Filename I:\share\SJ\Scott Joplin - The Piano Rags.wav

Peak level 94.6 % Range quality 100.0 % Test CRC E891B8C9 Copy CRC E891B8C9 Copy OK

No errors occurred

End of status report


Трекер:  [ 27-Янв-2012 15:52 ]

  

Скачать .torrent

Размер .torrent файла 15 KB


Размер: 182 MB
Хэш (hash) релиза: 4084660a1220fa33eb1ba2c59af4b959689dcccd

Еще никто не оставлял запись к записи скачать торрент Scott Joplin - The Piano Rags - 1994, FLAC . Будь первым!

!Обратная связь