Скачать через торрент музыку Царь царей King of Kings бесплатно без регистрации torrent

Если у вас наблюдаются проблемы со скриншотами, переходом по ссылками, скачиванием торрентов - проблемы в блокировщике рекламы AdBlock. #хорошегоДня!


Статистика раздачи
Размер:  718 MB   |    Зарегистрирован:  5 лет 7 месяцев   |    .torrent скачан:  29 раз   |   
Раздают:  1  
   
Загрузка...
 
Автор Сообщение

Galfimbul

avatar Galfimbul


Царь царей / King of Kings

Жанр: Score
Композитор: Miklos Rozsa
Год выпуска диска: 2002
Год выпуска фильма: 1961
Страна-производитель диска: Германия
Издатель (лейбл): Warner Music
Номер по каталогу: 812278348-2
Аудиокодек: FLAC (*.flac)
Тип рипа: image+.cue
Битрейт аудио: lossless
Продолжительность: 1:17:36 + 56:47
Источник: emule
Наличие сканов в содержимом раздачи: да
Треклист:
01. Overture (03:43)
02. Prelude (02:24)
03. Roman Legions (01:28)
04. The Elders / Sanctuary (02:11)
05. The Scrolls / Subjugation (02:23)
06. Road To Bethlehem/The Nativity (03:51)
07. The Slaughter Of Innocents (01:40)
08. Joseph And Mary (01:45)
09. Pontius Pilate's Arrival (02:50)
10. John The Baptist (02:09)
11. Revolt / Barabbas' Escape (04:44)
12. Baptism Of Christ / Sadness And Joy (03:34)
13. The Last Tempation Of Christ (06:48)
14. The Chosen (01:39)
15. Herod's Feast (02:24)
16. Miricles (02:49)
17. The Hovel (00:19)
18. Parable Of The Seed (01:24)
19. Mary Magdalene / Answer From A Stone (02:10)
20. The Blessing (01:49)
21. Cast Out The Demon (01:34)
22. Woman Of Sin (02:47)
23. John's Message (01:53)
24. Jugglers And Tumblers / Herod's Desire (03:00)
25. Salome's Dances (02:46)
26. Christ's Answer/The Beheading Of John (02:16)
27. Salome's Dance #6 (01:15) (Deleted Reprise)
28. Mount Galilee / Sermon On The Mount / Love Your Neighbor (08:15)
29. The Law Of The Prophets (01:17)
 
EAC extraction logfile from 24. April 2006, 13:09 for CDMiklos Rozsa / King of Kings, Disc 1

Used drive : HL-DT-STDVD-ROM GDR8162B Adapter: 1 ID: 1Read mode : Secure with NO C2, accurate stream, disable cacheRead offset correction : 102Overread into Lead-In and Lead-Out : No

Used output format : C:\Programmi\EAC\bin\flac.exe (User Defined Encoder) 320 kBit/s Additional command line options : -8 -V - %s

Other options : Fill up missing offset samples with silence : Yes Delete leading and trailing silent blocks : No Installed external ASPI interface

Range status and errorsSelected range Filename C:\Eac\Miklos Rozsa - King Of Kings [2CD][FLAC CUE SCAN]\CD1\CDImage.Flac.wav

Peak level 100.0 % Range quality 100.0 % CRC 022D9F15 Copy OK

No errors occured

End of status report
 
REM DATE 2002REM GENRE SoundtrackREM DISCID B412301DREM COMMENT "ExactAudioCopy v0.95b2"CATALOG 0081227834821PERFORMER "Miklos Rozsa"TITLE "King of Kings, Disc 1"FILE "King of Kings, Disc 1.Flac" WAVE TRACK 01 AUDIO TITLE "Overture" PERFORMER "Miklos Rozsa" ISRC UST1C0100182 INDEX 00 00:00:00 INDEX 01 00:00:32 TRACK 02 AUDIO TITLE "Prelude" PERFORMER "Miklos Rozsa" ISRC UST1C0100185 INDEX 00 03:44:05 INDEX 01 03:45:00 TRACK 03 AUDIO TITLE "Roman Legions" PERFORMER "Miklos Rozsa" ISRC UST1C0100189 INDEX 01 06:09:27 TRACK 04 AUDIO TITLE "The Elders/Sanctuary" PERFORMER "Miklos Rozsa" ISRC UST1C0100195 INDEX 01 07:37:72 TRACK 05 AUDIO TITLE "The Scrolls/Subjugation" PERFORMER "Miklos Rozsa" ISRC UST1C0100201 INDEX 00 09:49:07 INDEX 01 09:50:10 TRACK 06 AUDIO TITLE "Road to Bethlehem/The Nativity" PERFORMER "Miklos Rozsa" ISRC UST1C0100188 INDEX 01 12:14:12 TRACK 07 AUDIO TITLE "The Slaughter of Innocents" PERFORMER "Miklos Rozsa" ISRC UST1C0100202 INDEX 00 16:05:67 INDEX 01 16:06:52 TRACK 08 AUDIO TITLE "Joseph & Mary" PERFORMER "Miklos Rozsa" ISRC UST1C0100175 INDEX 00 17:47:20 INDEX 01 17:48:20 TRACK 09 AUDIO TITLE "Pontius Pilate's Arrival" PERFORMER "Miklos Rozsa" ISRC UST1C0100184 INDEX 00 19:33:50 INDEX 01 19:34:62 TRACK 10 AUDIO TITLE "John The Baptist" PERFORMER "Miklos Rozsa" ISRC UST1C0100173 INDEX 00 22:25:27 INDEX 01 22:26:02 TRACK 11 AUDIO TITLE "Revolt/Barabbas' Escape" PERFORMER "Miklos Rozsa" ISRC UST1C0100187 INDEX 01 24:35:45 TRACK 12 AUDIO TITLE "Baptism of Christ/Sadness and Joy" PERFORMER "Miklos Rozsa" ISRC UST1C0100162 INDEX 00 29:20:17 INDEX 01 29:20:52 TRACK 13 AUDIO TITLE "The Last Temptation of Christ" PERFORMER "Miklos Rozsa" ISRC UST1C0100197 INDEX 01 32:55:45 TRACK 14 AUDIO TITLE "The Chosen" PERFORMER "Miklos Rozsa" ISRC UST1C0100193 INDEX 01 39:43:65 TRACK 15 AUDIO TITLE "Herod's Feast" PERFORMER "Miklos Rozsa" ISRC UST1C0100171 INDEX 00 41:23:05 INDEX 01 41:24:27 TRACK 16 AUDIO TITLE "Miracles" PERFORMER "Miklos Rozsa" ISRC UST1C0100180 INDEX 00 43:49:00 INDEX 01 43:49:40 TRACK 17 AUDIO TITLE "The Hovel" PERFORMER "Miklos Rozsa" ISRC UST1C0100196 INDEX 00 46:39:07 INDEX 01 46:39:10 TRACK 18 AUDIO TITLE "Parable of the Seed" PERFORMER "Miklos Rozsa" ISRC UST1C0100183 INDEX 00 46:59:20 INDEX 01 46:59:72 TRACK 19 AUDIO TITLE "Mary Magdalene/Answer From a Stone" PERFORMER "Miklos Rozsa" ISRC UST1C0100179 INDEX 00 48:24:38 INDEX 01 48:25:15 TRACK 20 AUDIO TITLE "The Blessing" PERFORMER "Miklos Rozsa" ISRC UST1C0100192 INDEX 00 50:36:02 INDEX 01 50:36:65 TRACK 21 AUDIO TITLE "Casting Out The Demon" PERFORMER "Miklos Rozsa" ISRC UST1C0100164 INDEX 00 52:26:17 INDEX 01 52:26:65 TRACK 22 AUDIO TITLE "Woman of Sin" PERFORMER "Miklos Rozsa" ISRC UST1C0100204 INDEX 00 54:01:60 INDEX 01 54:02:02 TRACK 23 AUDIO TITLE "John's Message" PERFORMER "Miklos Rozsa" ISRC UST1C0100174 INDEX 00 56:50:17 INDEX 01 56:50:67 TRACK 24 AUDIO TITLE "Jugglers & Tumblers/Herod's Desire" PERFORMER "Miklos Rozsa" ISRC UST1C0100177 INDEX 00 58:44:02 INDEX 01 58:44:05 TRACK 25 AUDIO TITLE "Salome's Dances" PERFORMER "Miklos Rozsa" ISRC UST1C0100191 INDEX 00 61:44:20 INDEX 01 61:44:27 TRACK 26 AUDIO TITLE "Christ's Answer/The Beheading of John" PERFORMER "Miklos Rozsa" ISRC UST1C0100166 INDEX 00 64:31:15 INDEX 01 64:31:25 TRACK 27 AUDIO TITLE "Salome's Dance #6" PERFORMER "Miklos Rozsa" ISRC UST1C0100190 INDEX 01 66:44:70 TRACK 28 AUDIO TITLE "Mount Galilee/Sermon on the Mount/Love Your Neighbor" PERFORMER "Miklos Rozsa" ISRC UST1C0100181 INDEX 00 68:00:57 INDEX 01 68:01:52 TRACK 29 AUDIO TITLE "The Law of The Prophets" PERFORMER "Miklos Rozsa" ISRC UST1C0100198 INDEX 00 76:17:35 INDEX 01 76:18:35
 
Started at: понедельник, 16. 01. 2012. - 23:02.20

1 file found

1 -===- C:\!_TORRENT\Miklos Rozsa - King Of Kings (2002) [FLAC]\CD1\King of Kings, Disc 1.Flac Extracted successfully Conclusion: This track looks like CDDA with probability 100% Tempfile successfully deleted.

Finished at: понедельник, 16. 01. 2012. - 23:11.14 (operation time: 0:08.53)
Треклист:
01. The Lord's Prayer (02:37)
02. The Disciples (02:43)
03. Barabbas' Plan (01:43)
04. Enter'Acte (04:18)
05. Premeonition (01:36)
06. Jesus Enters Jerusalem / A Tempest In Judea / Defeat / Phalanx / False Promises / The Last Supper / The Feast (14:49)
07. Judas Sees Caiphas / Gethsemane (03:36)
08. Agony In The Garden / Judas' Kiss (04:07)
09. Herod's Castle Trumpet (00:08)
10. Christ Before Herod (00:59)
11. The Scourging Of Christ/CrownOf Throns (02:21)
12. Via Doi Orosa / Christ Bearing His Cross (09:10)
13. Last Words Of Christ/Golgotha / The Pieta / The Sepulcher / Resurrection (06:13)
14. Epilogue (02:07)
 
EAC extraction logfile from 24. April 2006, 13:40 for CDMiklos Rozsa / King of Kings, Disc 2

Used drive : HL-DT-STDVD-ROM GDR8162B Adapter: 1 ID: 1Read mode : Secure with NO C2, accurate stream, disable cacheRead offset correction : 102Overread into Lead-In and Lead-Out : No

Used output format : C:\Programmi\EAC\bin\flac.exe (User Defined Encoder) 320 kBit/s Additional command line options : -8 -V - %s

Other options : Fill up missing offset samples with silence : Yes Delete leading and trailing silent blocks : No Installed external ASPI interface

Range status and errorsSelected range Filename C:\Eac\Miklos Rozsa - King Of Kings [2CD][FLAC CUE SCAN]\CD2\CDImage.Flac.wav

Peak level 100.0 % Range quality 99.9 % CRC 0A644A40 Copy OK

No errors occured

End of status report
 
REM DATE 2002REM GENRE SoundtrackREM DISCID BD0D4F0EREM COMMENT "ExactAudioCopy v0.95b2"CATALOG 0081227834821PERFORMER "Miklos Rozsa"TITLE "King of Kings, Disc 2"FILE "King of Kings, Disc 2.Flac" WAVE TRACK 01 AUDIO TITLE "The Lord's Prayer" PERFORMER "Miklos Rozsa" ISRC UST1C0100199 INDEX 00 00:00:00 INDEX 01 00:00:32 TRACK 02 AUDIO TITLE "The Disciples" PERFORMER "Miklos Rozsa" ISRC UST1C0100194 INDEX 00 02:38:32 INDEX 01 02:38:65 TRACK 03 AUDIO TITLE "Barabbas' Plan" PERFORMER "Miklos Rozsa" ISRC UST1C0100163 INDEX 00 05:23:07 INDEX 01 05:24:05 TRACK 04 AUDIO TITLE "Entre'Acte" PERFORMER "Miklos Rozsa" ISRC UST1C0100167 INDEX 00 07:07:40 INDEX 01 07:08:32 TRACK 05 AUDIO TITLE "Premonition" PERFORMER "Miklos Rozsa" ISRC UST1C0100186 INDEX 01 11:27:10 TRACK 06 AUDIO TITLE "Jesus Enters Jerusalem" PERFORMER "Miklos Rozsa" ISRC UST1C0100172 INDEX 00 13:04:20 INDEX 01 13:05:50 TRACK 07 AUDIO TITLE "Judas Sees Ciphas/Gethsemane" PERFORMER "Miklos Rozsa" ISRC UST1C0100176 INDEX 00 27:55:27 INDEX 01 27:55:30 TRACK 08 AUDIO TITLE "Agony in the Garden/Judas' Kiss" PERFORMER "Miklos Rozsa" ISRC UST1C0100161 INDEX 01 31:31:65 TRACK 09 AUDIO TITLE "Herod's Castle Trumpet" PERFORMER "Miklos Rozsa" ISRC UST1C0100170 INDEX 00 35:39:60 INDEX 01 35:40:70 TRACK 10 AUDIO TITLE "Christ Before Herod" PERFORMER "Miklos Rozsa" ISRC UST1C0100165 INDEX 00 35:49:20 INDEX 01 35:50:17 TRACK 11 AUDIO TITLE "The Scourging of Christ/Crown of Thorns" PERFORMER "Miklos Rozsa" ISRC UST1C0100200 INDEX 00 36:50:22 INDEX 01 36:51:52 TRACK 12 AUDIO TITLE "Via Dolorosa/Christ Bearing His Cross" PERFORMER "Miklos Rozsa" ISRC UST1C0100203 INDEX 00 39:13:37 INDEX 01 39:14:17 TRACK 13 AUDIO TITLE "Last Words of Christ/Resurrection" PERFORMER "Miklos Rozsa" ISRC UST1C0100178 INDEX 00 48:24:65 INDEX 01 48:25:60 TRACK 14 AUDIO TITLE "Epilogue" PERFORMER "Miklos Rozsa" ISRC UST1C0100168 INDEX 00 54:39:35 INDEX 01 54:39:40
 
Started at: понедельник, 16. 01. 2012. - 23:13.32

1 file found

1 -===- C:\!_TORRENT\Miklos Rozsa - King Of Kings (2002) [FLAC]\CD2\King of Kings, Disc 2.Flac Extracted successfully Conclusion: This track looks like CDDA with probability 100% Tempfile successfully deleted.

Finished at: понедельник, 16. 01. 2012. - 23:19.32 (operation time: 0:06.00)


Трекер:  [ 09-Фев-2012 19:11 ]

  

Скачать .torrent

Размер .torrent файла 15 KB


Размер: 718 MB
Хэш (hash) релиза: 0ff9171c89526eb7dd79b99b3b1a5efd851e522c

Торренты, похожие на Царь царей King of Kings скачать торрент

Форум Название Автор Размер S L Добавлен
Саундтреки к фильмам и мультфильмам (mp3) ·· (Score) Царь царей / King of Kings (by Miklos Rozsa) - 2002 (1961), MP3, 320 kbps Galfimbul 331375063316 MB 0 0 1326778244

08:30

17-Янв-12

Саундтреки к фильмам и мультфильмам (lossless) ·· (Soundtrack) Царь горы / King Of The Hill - 1999, FLAC (tracks+.cue), lossless Galfimbul 435224134415 MB 0 0 1322680639

22:17

30-Ноя-11

Саундтреки к фильмам и мультфильмам (mp3) ·· (Soundtrack) King Of The Hill / Царь Горы - 1999, MP3 (tracks), 320 kbps Mos 156772596150 MB 0 0 1292268137

22:22

13-Дек-10

Еще никто не оставлял запись к записи скачать торрент Царь царей King of Kings . Будь первым!

!Обратная связь