Скачать через торрент музыку Все меры предосторожности Extreme Prejudice бесплатно без регистрации torrent

Если у вас наблюдаются проблемы со скриншотами, переходом по ссылками, скачиванием торрентов - проблемы в блокировщике рекламы AdBlock. #хорошегоДня!


Статистика раздачи
Размер:  406 MB   |    Зарегистрирован:  5 лет 7 месяцев   |    .torrent скачан:  26 раз   |   
Раздают:  1  
   
Загрузка...
 
Автор Сообщение

Galfimbul

avatar Galfimbul


Все меры предосторожности / Extreme Prejudice

Жанр: Score
Композитор: Jerry Goldsmith
Год выпуска диска: 2005
Год выпуска фильма: 1987
Страна-производитель диска: США
Издатель (лейбл): La-La Land Records
Номер по каталогу: 2005
Аудиокодек: APE (*.ape)
Тип рипа: image+.cue
Битрейт аудио: lossless
Продолжительность: 1:04:11
Источник: emule
Наличие сканов в содержимом раздачи: да

Треклист:
01. Extreme Prejudice (2:12)
02. Carolco Logo (0:16)
03. Arrivals, Main Title (5:19)
04. Cash (7:27)
05. Next Time (0:21)
06. The Set Up (3:20)
07. Dust (4:16)
08. A Nice Fellow (1:29)
09. The Plan (2:02)
10. The Bank (Pts. 1,2 & 3) (4:58)
11. The Bank (Pt. 4) (1:31)
12. The Plan (original version) (9:21)
13. Identities (1:47)
14. To Mexico (3:05)
15. No Friendlies (2:40)
16. Positions (0:51)
17. They Don't Care (3:28)
18. Fighting & Dying (2:12)
19. The Funeral (2:10)
20. A Deal, End Credits (5:27)
 
EAC extraction logfile from 9. April 2005, 20:08 for CDJerry Goldsmith / Extreme Prejudice, expanded

Used drive : _NEC DVD_RW ND-2510A Adapter: 1 ID: 0Read mode : Secure with NO C2, accurate stream, disable cacheRead offset correction : 0Overread into Lead-In and Lead-Out : No

Used output format : Internal WAV Routines 44.100 Hz; 16 Bit; Stereo

Other options : Fill up missing offset samples with silence : Yes Delete leading and trailing silent blocks : No Installed external ASPI interface

Range status and errorsSelected range Filename E:\Audio Temp Files\Extreme Prejudice, expanded.wav

Peak level 99.8 % Range quality 99.9 % CRC 9CA8AC51 Copy OK

No errors occured

End of status report
 
REM DATE 1987REM GENRE SoundtrackPERFORMER "Jerry Goldsmith"TITLE "Extreme Prejudice, expanded"FILE "Extreme Prejudice.ape" WAVE TRACK 01 AUDIO TITLE "Extreme Prejudice - Un-used Trailer Score" PERFORMER "Jerry Goldsmith" FLAGS DCP INDEX 01 00:00:00 TRACK 02 AUDIO TITLE "Carolco Logo" PERFORMER "Jerry Goldsmith" FLAGS DCP INDEX 00 02:12:37 INDEX 01 02:14:37 TRACK 03 AUDIO TITLE "Arrivals / Main Title" PERFORMER "Jerry Goldsmith" FLAGS DCP INDEX 00 02:31:05 INDEX 01 02:33:05 TRACK 04 AUDIO TITLE "Cash" PERFORMER "Jerry Goldsmith" FLAGS DCP INDEX 00 07:52:06 INDEX 01 07:54:06 TRACK 05 AUDIO TITLE "Next Time" PERFORMER "Jerry Goldsmith" FLAGS DCP INDEX 00 15:21:63 INDEX 01 15:23:63 TRACK 06 AUDIO TITLE "The Set Up" PERFORMER "Jerry Goldsmith" FLAGS DCP INDEX 00 15:45:05 INDEX 01 15:47:05 TRACK 07 AUDIO TITLE "Dust" PERFORMER "Jerry Goldsmith" FLAGS DCP INDEX 00 19:07:33 INDEX 01 19:09:33 TRACK 08 AUDIO TITLE "A Nice Fellow" PERFORMER "Jerry Goldsmith" FLAGS DCP INDEX 00 23:25:50 INDEX 01 23:27:50 TRACK 09 AUDIO TITLE "The Plan" PERFORMER "Jerry Goldsmith" FLAGS DCP INDEX 00 24:56:70 INDEX 01 24:58:70 TRACK 10 AUDIO TITLE "The Bank (Pts 1, 2 & 3)" PERFORMER "Jerry Goldsmith" FLAGS DCP INDEX 00 27:01:03 INDEX 01 27:03:03 TRACK 11 AUDIO TITLE "The Bank (Pt. 4)" PERFORMER "Jerry Goldsmith" FLAGS DCP INDEX 00 32:01:46 INDEX 01 32:03:46 TRACK 12 AUDIO TITLE "The Plan - Original Version" PERFORMER "Jerry Goldsmith" FLAGS DCP INDEX 00 33:35:14 INDEX 01 33:37:14 TRACK 13 AUDIO TITLE "Identities" PERFORMER "Jerry Goldsmith" FLAGS DCP INDEX 00 42:58:71 INDEX 01 43:00:71 TRACK 14 AUDIO TITLE "To Mexico" PERFORMER "Jerry Goldsmith" FLAGS DCP INDEX 00 44:48:45 INDEX 01 44:50:45 TRACK 15 AUDIO TITLE "No Friendlies" PERFORMER "Jerry Goldsmith" FLAGS DCP INDEX 00 47:55:61 INDEX 01 47:57:61 TRACK 16 AUDIO TITLE "Positions" PERFORMER "Jerry Goldsmith" FLAGS DCP INDEX 00 50:37:69 INDEX 01 50:39:69 TRACK 17 AUDIO TITLE "They Don't Care" PERFORMER "Jerry Goldsmith" FLAGS DCP INDEX 00 51:31:04 INDEX 01 51:33:04 TRACK 18 AUDIO TITLE "Fighting and Dying" PERFORMER "Jerry Goldsmith" FLAGS DCP INDEX 00 55:01:06 INDEX 01 55:03:06 TRACK 19 AUDIO TITLE "The Funeral" PERFORMER "Jerry Goldsmith" FLAGS DCP INDEX 00 57:15:44 INDEX 01 57:17:44 TRACK 20 AUDIO TITLE "A Deal / End Credits" PERFORMER "Jerry Goldsmith" FLAGS DCP INDEX 00 59:28:17 INDEX 01 59:30:17
 
Started at: воскресенье, 22. 01. 2012. - 1:52.13

1 file found

1 -===- C:\!_TORRENT\Jerry Goldsmith - Extreme Prejudice (2005) [APE]\Extreme Prejudice.ape Extracted successfully Conclusion: This track looks like MPEG with probability 95% Tempfile successfully deleted.

Finished at: воскресенье, 22. 01. 2012. - 1:58.33 (operation time: 0:06.19)


Трекер:  [ 09-Фев-2012 19:09 ]

  

Скачать .torrent

Размер .torrent файла 17 KB


Размер: 406 MB
Хэш (hash) релиза: ed84377a0cec2aeadec40b86cf3954a521c5e4cf

Еще никто не оставлял запись к записи скачать торрент Все меры предосторожности Extreme Prejudice . Будь первым!

!Обратная связь