Скачать через торрент музыку 17 мгновений весны Семнадцать мгновений весны бесплатно без регистрации torrent

Если у вас наблюдаются проблемы со скриншотами, переходом по ссылками, скачиванием торрентов - проблемы в блокировщике рекламы AdBlock. #хорошегоДня!


Статистика раздачи
Размер:  238 MB   |    Зарегистрирован:  5 лет 7 месяцев   |    .torrent скачан:  40 раз   |   
Раздают:  1  
   
Загрузка...
 
Автор Сообщение

Galfimbul

avatar Galfimbul


Семнадцать мгновений весны

Жанр: Soundtrack
Композитор: Микаэл Таривердиев
Год выпуска диска: 2001
Год выпуска фильма: 1973
Страна-производитель диска: Россия
Издатель (лейбл): "Murzik"
Номер по каталогу: MA 015
Аудиокодек: FLAC (*.flac)
Тип рипа: image+.cue
Битрейт аудио: lossless
Продолжительность: 45.39
Источник: собственный рип
Наличие сканов в содержимом раздачи: да
01. На цветочной улице
02. Где-то далеко
03. Эхо войны
04. В черно-белом ритме
05. Мгновения
06. Прелюдия для Кэт
07. Вокзал прощания
08. Дороги
09. Ночной патруль
10. Весеннее утро
11. Двое в кафе
12. Сумерки в Берлине
13. Побег
14. Не думай о секундах свысока
Total 45.39
 
Exact Audio Copy V0.99 prebeta 5 from 4. May 2009

Отчёт EAC об извлечении, выполненном 11. января 2012, 7:07

Various / 17 Mgnovenij Vesny

Дисковод: _NEC DVD_RW ND-3570A Adapter: 3 ID: 0

Режим чтения : ДостоверностьИспользование точного потока : ДаОтключение кэша аудио : ДаИспользование указателей C2 : Нет

Коррекция смещения при чтении : 48Способность читать области Lead-in и Lead-out : НетЗаполнение пропущенных сэмплов тишиной : ДаУдаление блоков с тишиной в начале и конце : НетПри вычислениях CRC использовались нулевые сэмплы : ДаИнтерфейс : Установленный внешний ASPI-интерфейс

Выходной формат : Пользовательский кодировщикВыбранный битрейт : 128 kBit/sКачество : ВысокийДобавление ID3-тэга : НетУтилита сжатия : C:\Program Files\Exact Audio Copy\Flac\flac.exeДополнительные параметры : -8 -V -T "ARTIST=%a" -T "TITLE=%t" -T "ALBUM=%g" -T "DATE=%y" -T "TRACKNUMBER=%n" -T "GENRE=%m" -T "COMMENT=EAC FLAC -8" %s

TOC извлечённого CD

Трек | Старт | Длительность | Начальный сектор | Конечный сектор --------------------------------------------------------------------- 1 | 0:00.00 | 3:16.40 | 0 | 14739 2 | 3:16.40 | 2:47.35 | 14740 | 27299 3 | 6:04.00 | 1:57.60 | 27300 | 36134 4 | 8:01.60 | 4:14.37 | 36135 | 55221 5 | 12:16.22 | 2:04.00 | 55222 | 64521 6 | 14:20.22 | 3:24.35 | 64522 | 79856 7 | 17:44.57 | 3:31.58 | 79857 | 95739 8 | 21:16.40 | 2:58.52 | 95740 | 109141 9 | 24:15.17 | 5:44.58 | 109142 | 134999 10 | 30:00.00 | 1:29.22 | 135000 | 141696 11 | 31:29.22 | 4:22.30 | 141697 | 161376 12 | 35:51.52 | 2:04.38 | 161377 | 170714 13 | 37:56.15 | 4:43.45 | 170715 | 191984 14 | 42:39.60 | 2:59.17 | 191985 | 205426

Характеристики диапазона извлечения и сообщения об ошибках

Выбранный диапазон

Имя файла F:\Exact Audio Copy\Таривердиев - 17 Мгновений Весны\Various - 17 Mgnovenij Vesny.wav

Пиковый уровень 99.6 % Качество диапазона 100.0 % CRC теста 1178CABF CRC копии 1178CABF Копирование... OK

Ошибок не произошло

AccurateRip: сводка

Трек 1 точное извлечение (доверие 4) [BF18E5F7]Трек 2 точное извлечение (доверие 4) [A4E5478D]Трек 3 точное извлечение (доверие 4) [638EBA19]Трек 4 точное извлечение (доверие 4) [D2BB4EB7]Трек 5 точное извлечение (доверие 4) [EFB1E16B]Трек 6 точное извлечение (доверие 4) [CEC1F89D]Трек 7 точное извлечение (доверие 4) [80204045]Трек 8 точное извлечение (доверие 4) [50BFDDBF]Трек 9 точное извлечение (доверие 4) [8D36EA62]Трек 10 точное извлечение (доверие 4) [5748D7DC]Трек 11 точное извлечение (доверие 4) [007E3052]Трек 12 точное извлечение (доверие 4) [F03A2E39]Трек 13 точное извлечение (доверие 4) [E28F3F89]Трек 14 точное извлечение (доверие 4) [45CD2AE9]

Все треки извлечены точно

Конец отчёта


Трекер:  [ 09-Фев-2012 19:07 ]

  

Скачать .torrent

Размер .torrent файла 19 KB


Размер: 238 MB
Хэш (hash) релиза: da9b663a4fb5dc82f13839531f2e4bec07592fa6

Еще никто не оставлял запись к записи скачать торрент 17 мгновений весны Семнадцать мгновений весны . Будь первым!

!Обратная связь