Скачать через торрент музыку Колдовство The Craft бесплатно без регистрации torrent

Если у вас наблюдаются проблемы со скриншотами, переходом по ссылками, скачиванием торрентов - проблемы в блокировщике рекламы AdBlock. #хорошегоДня!


Статистика раздачи
Размер:  197 MB   |    Зарегистрирован:  5 лет 7 месяцев   |    .torrent скачан:  25 раз   |   
Раздают:  1  
   
Загрузка...
 
Автор Сообщение

Galfimbul

avatar Galfimbul


Колдовство | The Craft

Жанр: Score
Композитор: Graeme Revell
Год выпуска : 1996
Страна-производитель диска: USA
Издатель (лейбл): Varese Sarabande
Номер по каталогу: VSD-5732
Аудио кодек: FLAC (*.flac)
Тип рипа: tracks+.cue
Битрейт аудио: lossless
Продолжительность: 00:35:01
Источник: Собственный рип
Наличие сканов в содержимом раздачи: да

Треклист:
1. Ours Is The Power (01:07)
2. Bitches Of Eastwick (03:17)
3. A Natural Witch (01:28)
4. Calling The Corners (01:31)
5. The Magic Store (02:18)
6. Bonnie (02:22)
7. Invocation (04:24)
8. The Glamour (02:00)
9. The Nightmare (01:49)
10. Behind The Curtain (02:15)
11. By The Power Of 3x3 (04:27)
12. Sarah's Revenge (01:37)
13. Trouble With Snakes And Insects (01:52)
14. I Bind You, Nancy (02:30)
15. Lightning Strikes (02:04)
 
Exact Audio Copy V1.0 beta 3 from 29. August 2011

EAC extraction logfile from 9. January 2012, 21:40

Graeme Revell / The Craft

Used drive : PLEXTOR DVDR PX-L890SA Adapter: 1 ID: 1

Read mode : SecureUtilize accurate stream : YesDefeat audio cache : YesMake use of C2 pointers : No

Read offset correction : 6Overread into Lead-In and Lead-Out : NoFill up missing offset samples with silence : YesDelete leading and trailing silent blocks : NoNull samples used in CRC calculations : YesUsed interface : Installed external ASPI interfaceGap handling : Appended to previous track

Used output format : User Defined EncoderSelected bitrate : 1024 kBit/sQuality : HighAdd ID3 tag : NoCommand line compressor : C:\Program Files\Exact Audio Copy\Flac\flac.exeAdditional command line options : -V -8 -T "Genre=%genre%" -T "Artist=%artist%" -T "Title=%title%" -T "Album=%albumtitle%" -T "Date=%year%" -T "Tracknumber=%tracknr%" -T "Comment=%comment%" %source%

TOC of the extracted CD

Track | Start | Length | Start sector | End sector --------------------------------------------------------- 1 | 0:00.00 | 1:07.45 | 0 | 5069 2 | 1:07.45 | 3:17.70 | 5070 | 19914 3 | 4:25.40 | 1:28.58 | 19915 | 26572 4 | 5:54.23 | 1:31.07 | 26573 | 33404 5 | 7:25.30 | 2:18.45 | 33405 | 43799 6 | 9:44.00 | 2:22.50 | 43800 | 54499 7 | 12:06.50 | 4:24.25 | 54500 | 74324 8 | 16:31.00 | 2:00.35 | 74325 | 83359 9 | 18:31.35 | 1:49.03 | 83360 | 91537 10 | 20:20.38 | 2:15.55 | 91538 | 101717 11 | 22:36.18 | 4:27.67 | 101718 | 121809 12 | 27:04.10 | 1:37.03 | 121810 | 129087 13 | 28:41.13 | 1:52.50 | 129088 | 137537 14 | 30:33.63 | 2:30.40 | 137538 | 148827 15 | 33:04.28 | 2:04.22 | 148828 | 158149

Track 1

Filename F:\torrent\The Craft_Graeme Revell\score\01 Our Is the Power.wav

Pre-gap length 0:00:02.00

Peak level 69.7 % Extraction speed 3.4 X Track quality 100.0 % Test CRC 418FAA39 Copy CRC 418FAA39 Accurately ripped (confidence 5) [771ED832] (AR v1) Copy OK

Track 2

Filename F:\torrent\The Craft_Graeme Revell\score\02 Bitches of Eastwick.wav

Peak level 92.2 % Extraction speed 5.0 X Track quality 100.0 % Test CRC 8FE06B3E Copy CRC 8FE06B3E Accurately ripped (confidence 5) [BDE005EB] (AR v1) Copy OK

Track 3

Filename F:\torrent\The Craft_Graeme Revell\score\03 A Natural Witch.wav

Peak level 93.9 % Extraction speed 4.4 X Track quality 100.0 % Test CRC B29549CA Copy CRC B29549CA Accurately ripped (confidence 5) [74DB5936] (AR v1) Copy OK

Track 4

Filename F:\torrent\The Craft_Graeme Revell\score\04 Calling the Corners.wav

Pre-gap length 0:00:01.35

Peak level 81.8 % Extraction speed 4.5 X Track quality 100.0 % Test CRC 23E6360F Copy CRC 23E6360F Accurately ripped (confidence 5) [0E681C3F] (AR v1) Copy OK

Track 5

Filename F:\torrent\The Craft_Graeme Revell\score\05 The Magic Store.wav

Peak level 83.8 % Extraction speed 5.4 X Track quality 100.0 % Test CRC 97D2A0B9 Copy CRC 97D2A0B9 Accurately ripped (confidence 5) [B889A93F] (AR v1) Copy OK

Track 6

Filename F:\torrent\The Craft_Graeme Revell\score\06 Bonnie.wav

Peak level 87.3 % Extraction speed 5.6 X Track quality 100.0 % Test CRC D08E38A3 Copy CRC D08E38A3 Accurately ripped (confidence 5) [650555FD] (AR v1) Copy OK

Track 7

Filename F:\torrent\The Craft_Graeme Revell\score\07 Invocation.wav

Peak level 94.0 % Extraction speed 6.5 X Track quality 100.0 % Test CRC 54CAB4C1 Copy CRC 54CAB4C1 Accurately ripped (confidence 5) [42391AA9] (AR v1) Copy OK

Track 8

Filename F:\torrent\The Craft_Graeme Revell\score\08 The Glamour.wav

Peak level 93.5 % Extraction speed 4.8 X Track quality 99.9 % Test CRC 1546711C Copy CRC 1546711C Accurately ripped (confidence 5) [5574195A] (AR v1) Copy OK

Track 9

Filename F:\torrent\The Craft_Graeme Revell\score\09 The Nightmare.wav

Pre-gap length 0:00:01.42

Peak level 92.8 % Extraction speed 6.0 X Track quality 100.0 % Test CRC 34C02AFE Copy CRC 34C02AFE Accurately ripped (confidence 5) [FDA2CB9F] (AR v1) Copy OK

Track 10

Filename F:\torrent\The Craft_Graeme Revell\score\10 Behind the Curtain.wav

Pre-gap length 0:00:01.10

Peak level 94.0 % Extraction speed 6.5 X Track quality 100.0 % Test CRC 6F11127C Copy CRC 6F11127C Accurately ripped (confidence 5) [EB4366F7] (AR v1) Copy OK

Track 11

Filename F:\torrent\The Craft_Graeme Revell\score\11 By the Power of 3 X 3.wav

Peak level 94.0 % Extraction speed 6.8 X Track quality 99.9 % Test CRC 14281CCC Copy CRC 14281CCC Accurately ripped (confidence 5) [BE75AB26] (AR v1) Copy OK

Track 12

Filename F:\torrent\The Craft_Graeme Revell\score\12 Sarah's Revenge.wav

Peak level 90.9 % Extraction speed 6.4 X Track quality 100.0 % Test CRC 3A64F402 Copy CRC 3A64F402 Accurately ripped (confidence 5) [B83AD0FA] (AR v1) Copy OK

Track 13

Filename F:\torrent\The Craft_Graeme Revell\score\13 Trouble With Snakes and Insects.wav

Peak level 93.5 % Extraction speed 6.9 X Track quality 100.0 % Test CRC 7C6A2FB8 Copy CRC 7C6A2FB8 Accurately ripped (confidence 5) [D0D201F5] (AR v1) Copy OK

Track 14

Filename F:\torrent\The Craft_Graeme Revell\score\14 I Bind You, Nancy.wav

Peak level 94.0 % Extraction speed 7.5 X Track quality 100.0 % Test CRC 5075EC97 Copy CRC 5075EC97 Accurately ripped (confidence 5) [16A06C02] (AR v1) Copy OK

Track 15

Filename F:\torrent\The Craft_Graeme Revell\score\15 Lightning Strikes.wav

Peak level 94.0 % Extraction speed 7.4 X Track quality 100.0 % Test CRC 96865F96 Copy CRC 96865F96 Accurately ripped (confidence 5) [F508B355] (AR v1) Copy OK

All tracks accurately ripped

No errors occurred

End of status report

==== Log checksum 0279E7DFF726DDFF1A7C1F4AAC9F60D5C637E0D5D618D0B3CE75491BFFF338C8 ====
 
REM GENRE SoundtrackREM DATE 1996REM DISCID D9083C0FREM COMMENT "ExactAudioCopy v1.0b3"CATALOG 0000000000000PERFORMER "Graeme Revell"TITLE "The Craft"FILE "01 Our Is the Power.wav" WAVE TRACK 01 AUDIO TITLE "Our Is the Power" PERFORMER "Graeme Revell" INDEX 01 00:00:00FILE "02 Bitches of Eastwick.wav" WAVE TRACK 02 AUDIO TITLE "Bitches of Eastwick" PERFORMER "Graeme Revell" INDEX 01 00:00:00FILE "03 A Natural Witch.wav" WAVE TRACK 03 AUDIO TITLE "A Natural Witch" PERFORMER "Graeme Revell" INDEX 01 00:00:00 TRACK 04 AUDIO TITLE "Calling the Corners" PERFORMER "Graeme Revell" INDEX 00 01:27:23FILE "04 Calling the Corners.wav" WAVE INDEX 01 00:00:00FILE "05 The Magic Store.wav" WAVE TRACK 05 AUDIO TITLE "The Magic Store" PERFORMER "Graeme Revell" INDEX 01 00:00:00FILE "06 Bonnie.wav" WAVE TRACK 06 AUDIO TITLE "Bonnie" PERFORMER "Graeme Revell" INDEX 01 00:00:00FILE "07 Invocation.wav" WAVE TRACK 07 AUDIO TITLE "Invocation" PERFORMER "Graeme Revell" INDEX 01 00:00:00FILE "08 The Glamour.wav" WAVE TRACK 08 AUDIO TITLE "The Glamour" PERFORMER "Graeme Revell" INDEX 01 00:00:00 TRACK 09 AUDIO TITLE "The Nightmare" PERFORMER "Graeme Revell" INDEX 00 01:58:68FILE "09 The Nightmare.wav" WAVE INDEX 01 00:00:00 TRACK 10 AUDIO TITLE "Behind the Curtain" PERFORMER "Graeme Revell" INDEX 00 01:47:68FILE "10 Behind the Curtain.wav" WAVE INDEX 01 00:00:00FILE "11 By the Power of 3 X 3.wav" WAVE TRACK 11 AUDIO TITLE "By the Power of 3 X 3" PERFORMER "Graeme Revell" INDEX 01 00:00:00FILE "12 Sarah's Revenge.wav" WAVE TRACK 12 AUDIO TITLE "Sarah's Revenge" PERFORMER "Graeme Revell" INDEX 01 00:00:00FILE "13 Trouble With Snakes and Insects.wav" WAVE TRACK 13 AUDIO TITLE "Trouble With Snakes and Insects" PERFORMER "Graeme Revell" INDEX 01 00:00:00FILE "14 I Bind You, Nancy.wav" WAVE TRACK 14 AUDIO TITLE "I Bind You, Nancy" PERFORMER "Graeme Revell" INDEX 01 00:00:00FILE "15 Lightning Strikes.wav" WAVE TRACK 15 AUDIO TITLE "Lightning Strikes" PERFORMER "Graeme Revell" INDEX 01 00:00:00


Трекер:  [ 09-Фев-2012 18:59 ]

  

Скачать .torrent

Размер .torrent файла 17 KB


Размер: 197 MB
Хэш (hash) релиза: 24d9885d5443e99d0eac31e6db0b9dd791da871d

Торренты, похожие на Колдовство The Craft скачать торрент

Форум Название Автор Размер S L Добавлен
Саундтреки к фильмам и мультфильмам (mp3) ·· (Score) The Craft | Колдовство (Complete) (Graeme Revell) - 1996, MP3, 192 kbps Galfimbul 6142127159 MB 0 0 1462601904

09:18

7-Май-16

Еще никто не оставлял запись к записи скачать торрент Колдовство The Craft . Будь первым!

!Обратная связь