Скачать через торрент музыку Планета хитов - Инструментальные хиты-1 - 2005, FLAC бесплатно без регистрации torrent

Если у вас наблюдаются проблемы со скриншотами, переходом по ссылками, скачиванием торрентов - проблемы в блокировщике рекламы AdBlock. #хорошегоДня!


Статистика раздачи
Размер:  463 MB   |    Зарегистрирован:  5 лет 7 месяцев   |    .torrent скачан:  38 раз   |   
Раздают:  1  
   
Загрузка...
 
Автор Сообщение

Galfimbul

avatar Galfimbul


Планета хитов - Инструментальные хиты-1
Жанр: Score
Год выпуска диска: 2005
Страна-производитель диска:
Издатель (лейбл): «Одиссей»
Номер по каталогу: 191 20201
Аудиокодек: FLAC (*.flac)
Тип рипа: image+.cue
Битрейт аудио: lossless
Продолжительность: 69:35
Источник: собственный рип
Наличие сканов в содержимом раздачи: да
[02:37] 01. Поль Мариа - Мелодия из к/ф'Крестный отец'
[02:41] 02. Джеймс Ласт - Мужчина и женщина
[04:17] 03. Игорь Корнелюк - Город которого нет(из к/ф 'Бандитский Петербург')
[04:10] 04. Еннио Морриконе - Мелодия из к/ф 'Однажды в Америке'
[02:04] 05. Микаэл Таривердиев - Мгновения(из к/ф '17 мгновений весны')
[03:41] 06. Андрей Петров - Танец воспоминаний(из к/ф 'Служебный роман')
[03:33] 07. Фаусто Папетти - Чувства
[04:16] 08. Раймонд Паулс - Мелодия из к/ф 'Долгая дорога в дюнах'
[04:42] 09. Джеф Голуб - На пляже
[02:33] 10. Н.Богословский - Любимый город(из к/ф 'Истребители')
[04:21] 11. Джеймс Ласт - Одинокий Пастух
[03:26] 12. Евгений Дога - Вальс (из к/ф 'Мой ласковый и нежный зверь')
[02:05] 13. Андрей Петров - Осень(из к/ф'Служебный роман')
[03:14] 14. Сохо Стрингз - Вчера
[04:18] 15. Микаэл Таривердиев - Двое в кафе(из к/ф'17 мгновений весны')
[05:07] 16. Еннио Морриконе - Чи Маи(из к/ф'Профессионал')
[02:16] 17. Андрей Петров - Вальс из к/ф'Берегись афтомобиля'
[02:44] 18. М.Легран и С.Грапелли - Шербургские зонтики
[03:46] 19. Валерий Зубков - Встреча(из к/ф 'Цыган')
[03:32] 20. Поль Мариа - Бабье лето
 
Exact Audio Copy V1.0 beta 1 from 15. November 2010

Отчёт EAC об извлечении, выполненном 21. декабря 2011, 19:53

Various / Планета хитов - инструментальные хиты-1

Дисковод: HL-DT-STDVD-RAM GH22NP21 Adapter: 0 ID: 0

Режим чтения : ДостоверностьИспользование точного потока : ДаОтключение кэша аудио : ДаИспользование указателей C2 : Нет

Коррекция смещения при чтении : 102Способность читать области Lead-in и Lead-out : НетЗаполнение пропущенных сэмплов тишиной : ДаУдаление блоков с тишиной в начале и конце : НетПри вычислениях CRC использовались нулевые сэмплы : ДаИнтерфейс : Встроенный Win32-интерфейс для Win NT/2000

Выходной формат : Пользовательский кодировщикВыбранный битрейт : 1024 kBit/sКачество : ВысокийДобавление ID3-тэга : НетУтилита сжатия : C:\Program Files\Exact Audio Copy\FLAC\FLAC.EXEДополнительные параметры : -8 -V -T "ARTIST=%a" -T "TITLE=%t" -T "ALBUM=%g" -T "DATE=%y" -T "TRACKNUMBER=%n" -T "GENRE=%m" -T "COMMENT=%e" %j--picture="%i"%j %s -o %d

TOC извлечённого CD

Трек | Старт | Длительность | Начальный сектор | Конечный сектор --------------------------------------------------------------------- 1 | 0:00.00 | 2:37.62 | 0 | 11836 2 | 2:37.62 | 2:41.39 | 11837 | 23950 3 | 5:19.26 | 4:17.70 | 23951 | 43295 4 | 9:37.21 | 4:10.72 | 43296 | 62117 5 | 13:48.18 | 2:04.43 | 62118 | 71460 6 | 15:52.61 | 3:41.30 | 71461 | 88065 7 | 19:34.16 | 3:33.52 | 88066 | 104092 8 | 23:07.68 | 4:16.21 | 104093 | 123313 9 | 27:24.14 | 4:42.27 | 123314 | 144490 10 | 32:06.41 | 2:33.74 | 144491 | 156039 11 | 34:40.40 | 4:21.57 | 156040 | 175671 12 | 39:02.22 | 3:26.27 | 175672 | 191148 13 | 42:28.49 | 2:05.69 | 191149 | 200592 14 | 44:34.43 | 3:14.40 | 200593 | 215182 15 | 47:49.08 | 4:18.74 | 215183 | 234606 16 | 52:08.07 | 5:07.54 | 234607 | 257685 17 | 57:15.61 | 2:16.05 | 257686 | 267890 18 | 59:31.66 | 2:44.56 | 267891 | 280246 19 | 62:16.47 | 3:46.44 | 280247 | 297240 20 | 66:03.16 | 3:32.24 | 297241 | 313164

Характеристики диапазона извлечения и сообщения об ошибках

Выбранный диапазон

Имя файла D:\Раздачи на torrents.ru\VA - Планета хитов - инструментальные хиты-1,2006(flac)\Various - Планета хитов - инструментальные хиты-1.wav

Пиковый уровень 84.1 %0.1 X Качество диапазона 100.0 % CRC теста 3E443B4F CRC копии 3E443B4F Копирование... OK

Ошибок не произошло

AccurateRip: сводка

Трек 1 нет в базе данныхТрек 2 нет в базе данныхТрек 3 нет в базе данныхТрек 4 нет в базе данныхТрек 5 нет в базе данныхТрек 6 нет в базе данныхТрек 7 нет в базе данныхТрек 8 нет в базе данныхТрек 9 нет в базе данныхТрек 10 нет в базе данныхТрек 11 нет в базе данныхТрек 12 нет в базе данныхТрек 13 нет в базе данныхТрек 14 нет в базе данныхТрек 15 нет в базе данныхТрек 16 нет в базе данныхТрек 17 нет в базе данныхТрек 18 нет в базе данныхТрек 19 нет в базе данныхТрек 20 нет в базе данных

Ни одного трека нет в базе AccurateRip

Конец отчёта
 
REM GENRE InstrumentalREM DATE 2005REM DISCID 35104F14REM COMMENT "ExactAudioCopy v1.0b1"PERFORMER "Various"TITLE "Планета хитов - инструментальные хиты-1"FILE "Various - Планета хитов - инструментальные хиты-1.flac" WAVE TRACK 01 AUDIO TITLE "Мелодия из к/ф'Крестный отец'" PERFORMER "Поль Мариа" INDEX 01 00:00:00 TRACK 02 AUDIO TITLE "Мужчина и женщина" PERFORMER "Джеймс Ласт" INDEX 01 02:37:62 TRACK 03 AUDIO TITLE "Город которого нет(из к/ф 'Бандитский Петербург')" PERFORMER "Игорь Корнелюк" INDEX 01 05:19:26 TRACK 04 AUDIO TITLE "Мелодия из к/ф 'Однажды в Америке'" PERFORMER "Еннио Морриконе" INDEX 01 09:37:21 TRACK 05 AUDIO TITLE "Мгновения(из к/ф '17 мгновений весны')" PERFORMER "Микаэл Таривердиев" INDEX 01 13:48:18 TRACK 06 AUDIO TITLE "Танец воспоминаний(из к/ф 'Служебный роман')" PERFORMER "Андрей Петров" INDEX 01 15:52:61 TRACK 07 AUDIO TITLE "Чувства" PERFORMER "Фаусто Папетти" INDEX 01 19:34:16 TRACK 08 AUDIO TITLE "Мелодия из к/ф 'Долгая дорога в дюнах'" PERFORMER "Раймонд Паулс" INDEX 01 23:07:68 TRACK 09 AUDIO TITLE "На пляже" PERFORMER "Джеф Голуб" INDEX 01 27:24:14 TRACK 10 AUDIO TITLE "Любимый город(из к/ф 'Истребители')" PERFORMER "Н.Богословский" INDEX 01 32:06:41 TRACK 11 AUDIO TITLE "Одинокий Пастух" PERFORMER "Джеймс Ласт" INDEX 01 34:40:40 TRACK 12 AUDIO TITLE "Вальс (из к/ф 'Мой ласковый и нежный зверь')" PERFORMER "Евгений Дога" INDEX 01 39:02:22 TRACK 13 AUDIO TITLE "Осень(из к/ф'Служебный роман')" PERFORMER "Андрей Петров" INDEX 01 42:28:49 TRACK 14 AUDIO TITLE "Вчера" PERFORMER "Сохо Стрингз" INDEX 01 44:34:43 TRACK 15 AUDIO TITLE "Двое в кафе(из к/ф'17 мгновений весны')" PERFORMER "Микаэл Таривердиев" INDEX 01 47:49:08 TRACK 16 AUDIO TITLE "Чи Маи(из к\ф'Профессионал')" PERFORMER "Еннио Морриконе" INDEX 01 52:08:07 TRACK 17 AUDIO TITLE "Вальс из к/ф'Берегись афтомобиля'" PERFORMER "Андрей Петров" INDEX 01 57:15:61 TRACK 18 AUDIO TITLE "Шербургские зонтики" PERFORMER "М.Легран и С.Грапелли" INDEX 01 59:31:66 TRACK 19 AUDIO TITLE "Встреча(из к/ф 'Цыган')" PERFORMER "Валерий Зубков" INDEX 01 62:16:47 TRACK 20 AUDIO TITLE "Бабье лето" PERFORMER "Поль Мариа" INDEX 01 66:03:16


Трекер:  [ 09-Фев-2012 18:56 ]

  

Скачать .torrent

Размер .torrent файла 19 KB


Размер: 463 MB
Хэш (hash) релиза: 2fbc7e6e52a86235b54aa600b5b3acb45adc104a

Еще никто не оставлял запись к записи скачать торрент Планета хитов - Инструментальные хиты-1 - 2005, FLAC . Будь первым!

!Обратная связь