Скачать через торрент музыку Биение сердца Heartbeat бесплатно без регистрации torrent

Если у вас наблюдаются проблемы со скриншотами, переходом по ссылками, скачиванием торрентов - проблемы в блокировщике рекламы AdBlock. #хорошегоДня!


Статистика раздачи
Размер:  468 MB   |    Зарегистрирован:  5 лет 8 месяцев   |    .torrent скачан:  25 раз   |   
Раздают:  1  
   
Загрузка...
 
Автор Сообщение

uzi2009

avatar uzi2009


Биение сердца / Heartbeat / Med hjartet på rette staden



Жанр: Soundtrack
Год выпуска диска: 2006
Год выпуска фильма: 1992–
Страна-производитель диска: Norway
Издатель (лейбл): Universal Music AS
Номер по каталогу: 983843 5
Аудиокодек: FLAC (*.flac)
Тип рипа: tracks+.cue
Битрейт аудио: lossless
Продолжительность: 01:17:28
Наличие сканов в содержимом раздачи: нет

Треклист:
01. Buddy Holly - Heartbeat [00:02:10]
02. The Righteous Brothers - Unchained Melody [00:03:35]
03. Dusty Springfield - I Only Want to Be with You [00:02:34]
04. The Mamas and The Papas - Monday Monday [00:03:20]
05. Diana Ross and The Supremes - Reflections [00:02:51]
06. The Marvelettes - Please Mr. Postman [00:02:27]
07. Mary Wells - My Guy [00:02:44]
08. The Troggs - Love is All Around [00:02:56]
09. The Isley Brothers - This Old Heart of Mine [00:02:48]
10. Fontella Bass - Rescue Me [00:02:52]
11. Lesley Gore - It's My Party [00:02:16]
12. Susan Maughan - Bobby's Girl [00:02:33]
13. Marvin Gaye - What's Going On [00:03:52]
14. Brian Hyland - Sealed With A Kiss [00:02:40]
15. Andy Kim - Be My Baby [00:02:52]
16. Barry Ryan - Eloise [00:05:44]
17. Clarence 'Frogman' Henry - But I Do [00:02:19]
18. Dave Dee, Dozy, Beaky, Mick and Tich - The Legend of Xanadu [00:03:35]
19. The Spencer Davis Group - Keep on Running [00:02:44]
20. Lulu and the Luvvers - Shout [00:02:51]
21. Small Faces - All or Nothing [00:03:03]
22. The Mindbenders - A Groovy Kind of Love [00:01:59]
23. Smokey Robinson and The Miracles - The Tears of a Clown [00:02:57]
24. Steppenwolf - Born to Be Wild [00:03:28]
25. The Surfaris - Wipe Out [00:02:33]
26. Julie Driscoll with The Trinity and Brian Auger - This Wheel's on Fire [00:03:33]
 
Exact Audio Copy V1.0 beta 3 from 29. August 2011

Отчёт EAC об извлечении, выполненном 28. декабря 2011, 2:42

Various Artists / Med hjartet på rette staden

Дисковод: SAMSUNG CDRW/DVD SM-352F Adapter: 2 ID: 0

Режим чтения : ДостоверностьИспользование точного потока : ДаОтключение кэша аудио : ДаИспользование указателей C2 : Нет

Коррекция смещения при чтении : 6Способность читать области Lead-in и Lead-out : НетЗаполнение пропущенных сэмплов тишиной : ДаУдаление блоков с тишиной в начале и конце : НетПри вычислениях CRC использовались нулевые сэмплы : ДаИнтерфейс : Встроенный Win32-интерфейс для Win NT/2000Обработка зазоров : Добавлено к предыдущему треку

Выходной формат : Пользовательский кодировщикВыбранный битрейт : 896 kBit/sКачество : ВысокийДобавление ID3-тега : НетУтилита сжатия : C:\Program Files\Exact Audio Copy\FLAC\FLAC.EXEДополнительные параметры : -V -8 -T "Genre=%genre%" -T "Artist=%artist%" -T "Title=%title%" -T "Album=%albumtitle%" -T "Date=%year%" -T "Tracknumber=%tracknr%" -T "Comment=%comment%" %source%

TOC извлечённого CD

Трек | Старт | Длительность | Начальный сектор | Конечный сектор --------------------------------------------------------------------- 1 | 0:00.00 | 2:10.45 | 0 | 9794 2 | 2:10.45 | 3:35.41 | 9795 | 25960 3 | 5:46.11 | 2:34.32 | 25961 | 37542 4 | 8:20.43 | 3:20.14 | 37543 | 52556 5 | 11:40.57 | 2:51.70 | 52557 | 65451 6 | 14:32.52 | 2:27.34 | 65452 | 76510 7 | 17:00.11 | 2:44.54 | 76511 | 88864 8 | 19:44.65 | 2:56.39 | 88865 | 102103 9 | 22:41.29 | 2:48.24 | 102104 | 114727 10 | 25:29.53 | 2:52.42 | 114728 | 127669 11 | 28:22.20 | 2:16.20 | 127670 | 137889 12 | 30:38.40 | 2:33.65 | 137890 | 149429 13 | 33:12.30 | 3:52.61 | 149430 | 166890 14 | 37:05.16 | 2:40.08 | 166891 | 178898 15 | 39:45.24 | 2:52.06 | 178899 | 191804 16 | 42:37.30 | 5:44.39 | 191805 | 217643 17 | 48:21.69 | 2:19.01 | 217644 | 228069 18 | 50:40.70 | 3:35.21 | 228070 | 244215 19 | 54:16.16 | 2:44.40 | 244216 | 256555 20 | 57:00.56 | 2:51.45 | 256556 | 269425 21 | 59:52.26 | 3:03.18 | 269426 | 283168 22 | 62:55.44 | 1:59.46 | 283169 | 292139 23 | 64:55.15 | 2:57.67 | 292140 | 305481 24 | 67:53.07 | 3:28.36 | 305482 | 321117 25 | 71:21.43 | 2:33.25 | 321118 | 332617 26 | 73:54.68 | 3:33.09 | 332618 | 348601

Трек 1

Имя файла E:\Sharing is not Piracy\Various Artists\2006 - Heartbeat\01. Buddy Holly - Heartbeat.wav

Длина предзазора 0:00:02.00

Пиковый уровень 97.1 % Скорость извлечения 5.0 X Качество трека 100.0 % CRC теста 144553AE CRC копии 144553AE Копирование... OK

Трек 2

Имя файла E:\Sharing is not Piracy\Various Artists\2006 - Heartbeat\02. The Righteous Brothers - Unchained Melody.wav

Пиковый уровень 100.0 % Скорость извлечения 5.9 X Качество трека 100.0 % CRC теста 8A0950DA CRC копии 8A0950DA Копирование... OK

Трек 3

Имя файла E:\Sharing is not Piracy\Various Artists\2006 - Heartbeat\03. Dusty Springfield - I Only Want to Be with You.wav

Пиковый уровень 90.5 % Скорость извлечения 5.9 X Качество трека 100.0 % CRC теста FD37A223 CRC копии FD37A223 Копирование... OK

Трек 4

Имя файла E:\Sharing is not Piracy\Various Artists\2006 - Heartbeat\04. The Mamas and The Papas - Monday Monday.wav

Пиковый уровень 97.7 % Скорость извлечения 5.7 X Качество трека 99.9 % CRC теста 9399735F CRC копии 9399735F Копирование... OK

Трек 5

Имя файла E:\Sharing is not Piracy\Various Artists\2006 - Heartbeat\05. Diana Ross and The Supremes - Reflections.wav

Пиковый уровень 100.0 % Скорость извлечения 6.8 X Качество трека 100.0 % CRC теста 32FE693B CRC копии 32FE693B Копирование... OK

Трек 6

Имя файла E:\Sharing is not Piracy\Various Artists\2006 - Heartbeat\06. The Marvelettes - Please Mr. Postman.wav

Пиковый уровень 94.8 % Скорость извлечения 6.7 X Качество трека 100.0 % CRC теста 890178E2 CRC копии 890178E2 Копирование... OK

Трек 7

Имя файла E:\Sharing is not Piracy\Various Artists\2006 - Heartbeat\07. Mary Wells - My Guy.wav

Пиковый уровень 100.0 % Скорость извлечения 7.1 X Качество трека 100.0 % CRC теста 1DC1A946 CRC копии 1DC1A946 Копирование... OK

Трек 8

Имя файла E:\Sharing is not Piracy\Various Artists\2006 - Heartbeat\08. The Troggs - Love is All Around.wav

Пиковый уровень 88.0 % Скорость извлечения 7.5 X Качество трека 100.0 % CRC теста 5A535AFB CRC копии 5A535AFB Копирование... OK

Трек 9

Имя файла E:\Sharing is not Piracy\Various Artists\2006 - Heartbeat\09. The Isley Brothers - This Old Heart of Mine.wav

Пиковый уровень 100.0 % Скорость извлечения 6.6 X Качество трека 99.9 % CRC теста B892CC05 CRC копии B892CC05 Копирование... OK

Трек 10

Имя файла E:\Sharing is not Piracy\Various Artists\2006 - Heartbeat\10. Fontella Bass - Rescue Me.wav

Пиковый уровень 100.0 % Скорость извлечения 7.9 X Качество трека 100.0 % CRC теста C9D8A8EF CRC копии C9D8A8EF Копирование... OK

Трек 11

Имя файла E:\Sharing is not Piracy\Various Artists\2006 - Heartbeat\11. Lesley Gore - It's My Party.wav

Пиковый уровень 75.3 % Скорость извлечения 7.7 X Качество трека 100.0 % CRC теста 2711643D CRC копии 2711643D Копирование... OK

Трек 12

Имя файла E:\Sharing is not Piracy\Various Artists\2006 - Heartbeat\12. Susan Maughan - Bobby's Girl.wav

Пиковый уровень 98.4 % Скорость извлечения 8.1 X Качество трека 100.0 % CRC теста 1B8F3204 CRC копии 1B8F3204 Копирование... OK

Трек 13

Имя файла E:\Sharing is not Piracy\Various Artists\2006 - Heartbeat\13. Marvin Gaye - What's Going On.wav

Пиковый уровень 100.0 % Скорость извлечения 9.0 X Качество трека 100.0 % CRC теста BB4000CC CRC копии BB4000CC Копирование... OK

Трек 14

Имя файла E:\Sharing is not Piracy\Various Artists\2006 - Heartbeat\14. Brian Hyland - Sealed With A Kiss.wav

Пиковый уровень 100.0 % Скорость извлечения 8.6 X Качество трека 100.0 % CRC теста 9C6D20F3 CRC копии 9C6D20F3 Копирование... OK

Трек 15

Имя файла E:\Sharing is not Piracy\Various Artists\2006 - Heartbeat\15. Andy Kim - Be My Baby.wav

Пиковый уровень 97.7 % Скорость извлечения 9.0 X Качество трека 100.0 % CRC теста 6FEBADD1 CRC копии 6FEBADD1 Копирование... OK

Трек 16

Имя файла E:\Sharing is not Piracy\Various Artists\2006 - Heartbeat\16. Barry Ryan - Eloise.wav

Пиковый уровень 99.4 % Скорость извлечения 10.2 X Качество трека 100.0 % CRC теста 5AE1081D CRC копии 5AE1081D Копирование... OK

Трек 17

Имя файла E:\Sharing is not Piracy\Various Artists\2006 - Heartbeat\17. Clarence ''Frogman'' Henry - But I Do.wav

Пиковый уровень 97.7 % Скорость извлечения 9.1 X Качество трека 100.0 % CRC теста 5A3AB70F CRC копии 5A3AB70F Копирование... OK

Трек 18

Имя файла E:\Sharing is not Piracy\Various Artists\2006 - Heartbeat\18. Dave Dee, Dozy, Beaky, Mick and Tich - The Legend of Xanadu.wav

Пиковый уровень 94.1 % Скорость извлечения 10.1 X Качество трека 100.0 % CRC теста 97E09BFB CRC копии 97E09BFB Копирование... OK

Трек 19

Имя файла E:\Sharing is not Piracy\Various Artists\2006 - Heartbeat\19. The Spencer Davis Group - Keep on Running.wav

Пиковый уровень 80.1 % Скорость извлечения 9.8 X Качество трека 100.0 % CRC теста 0AA4625D CRC копии 0AA4625D Копирование... OK

Трек 20

Имя файла E:\Sharing is not Piracy\Various Artists\2006 - Heartbeat\20. Lulu and the Luvvers - Shout.wav

Пиковый уровень 97.7 % Скорость извлечения 10.2 X Качество трека 100.0 % CRC теста F0AF6AA9 CRC копии F0AF6AA9 Копирование... OK

Трек 21

Имя файла E:\Sharing is not Piracy\Various Artists\2006 - Heartbeat\21. Small Faces - All or Nothing.wav

Пиковый уровень 100.0 % Скорость извлечения 9.0 X Качество трека 99.9 % CRC теста C88317DF CRC копии C88317DF Копирование... OK

Трек 22

Имя файла E:\Sharing is not Piracy\Various Artists\2006 - Heartbeat\22. The Mindbenders - A Groovy Kind of Love.wav

Пиковый уровень 97.7 % Скорость извлечения 9.7 X Качество трека 100.0 % CRC теста 942BA93E CRC копии 942BA93E Копирование... OK

Трек 23

Имя файла E:\Sharing is not Piracy\Various Artists\2006 - Heartbeat\23. Smokey Robinson and The Miracles - The Tears of a Clown.wav

Пиковый уровень 97.7 % Скорость извлечения 10.7 X Качество трека 100.0 % CRC теста 9F0CA8B4 CRC копии 9F0CA8B4 Копирование... OK

Трек 24

Имя файла E:\Sharing is not Piracy\Various Artists\2006 - Heartbeat\24. Steppenwolf - Born to Be Wild.wav

Пиковый уровень 97.7 % Скорость извлечения 9.6 X Качество трека 99.9 % CRC теста D405C02F CRC копии D405C02F Копирование... OK

Трек 25

Имя файла E:\Sharing is not Piracy\Various Artists\2006 - Heartbeat\25. The Surfaris - Wipe Out.wav

Пиковый уровень 80.0 % Скорость извлечения 9.0 X Качество трека 99.9 % CRC теста A12A3125 CRC копии A12A3125 Копирование... OK

Трек 26

Имя файла E:\Sharing is not Piracy\Various Artists\2006 - Heartbeat\26. Julie Driscoll with The Trinity and Brian Auger - This Wheel's on Fire.wav

Пиковый уровень 83.5 % Скорость извлечения 9.9 X Качество трека 99.9 % CRC теста 1F342BEC CRC копии 1F342BEC Копирование... OK

Ошибок не произошло

Конец отчёта

==== Контрольная сумма отчёта CAC92AAB203A3F4D1E1828779499633DDD8D90DDD4990BD0F3BB43CA3A9C9671 ====
 
REM GENRE SoundtrackREM DATE 2006REM DISCID 7B12281AREM COMMENT "ExactAudioCopy v1.0b3"CATALOG 2601030337007PERFORMER "Various Artists"TITLE "Med hjartet pa rette staden"FILE "01. Buddy Holly - Heartbeat.wav" WAVE TRACK 01 AUDIO TITLE "Heartbeat" PERFORMER "Buddy Holly" ISRC 0@4005100000 INDEX 01 00:00:00FILE "02. The Righteous Brothers - Unchained Melody.wav" WAVE TRACK 02 AUDIO TITLE "Unchained Melody" PERFORMER "The Righteous Brothers" ISRC 0@4005100000 INDEX 01 00:00:00FILE "03. Dusty Springfield - I Only Want to Be with You.wav" WAVE TRACK 03 AUDIO TITLE "I Only Want to Be with You" PERFORMER "Dusty Springfield" ISRC 0@4005100000 INDEX 01 00:00:00FILE "04. The Mamas and The Papas - Monday Monday.wav" WAVE TRACK 04 AUDIO TITLE "Monday Monday" PERFORMER "The Mamas and The Papas" ISRC 0`4005300054 INDEX 01 00:00:00FILE "05. Diana Ross and The Supremes - Reflections.wav" WAVE TRACK 05 AUDIO TITLE "Reflections" PERFORMER "Diana Ross and The Supremes" ISRC 104007100082 INDEX 01 00:00:00FILE "06. The Marvelettes - Please Mr. Postman.wav" WAVE TRACK 06 AUDIO TITLE "Please Mr. Postman" PERFORMER "The Marvelettes" ISRC 1@4005700114 INDEX 01 00:00:00FILE "07. Mary Wells - My Guy.wav" WAVE TRACK 07 AUDIO TITLE "My Guy" PERFORMER "Mary Wells" ISRC 1P4006200143 INDEX 01 00:00:00FILE "08. The Troggs - Love is All Around.wav" WAVE TRACK 08 AUDIO TITLE "Love is All Around" PERFORMER "The Troggs" ISRC 1P4006200143 INDEX 01 00:00:00FILE "09. The Isley Brothers - This Old Heart of Mine.wav" WAVE TRACK 09 AUDIO TITLE "This Old Heart of Mine" PERFORMER "The Isley Brothers" ISRC 1P4006200143 INDEX 01 00:00:00FILE "10. Fontella Bass - Rescue Me.wav" WAVE TRACK 10 AUDIO TITLE "Rescue Me" PERFORMER "Fontella Bass" ISRC 1P4006200143 INDEX 01 00:00:00FILE "11. Lesley Gore - It's My Party.wav" WAVE TRACK 11 AUDIO TITLE "It's My Party" PERFORMER "Lesley Gore" ISRC 404001100253 INDEX 01 00:00:00FILE "12. Susan Maughan - Bobby's Girl.wav" WAVE TRACK 12 AUDIO TITLE "Bobby's Girl" PERFORMER "Susan Maughan" ISRC 404001100253 INDEX 01 00:00:00FILE "13. Marvin Gaye - What's Going On.wav" WAVE TRACK 13 AUDIO TITLE "What's Going On" PERFORMER "Marvin Gaye" ISRC 404001100253 INDEX 01 00:00:00FILE "14. Brian Hyland - Sealed With A Kiss.wav" WAVE TRACK 14 AUDIO TITLE "Sealed With A Kiss" PERFORMER "Brian Hyland" ISRC 4`4000900331 INDEX 01 00:00:00FILE "15. Andy Kim - Be My Baby.wav" WAVE TRACK 15 AUDIO TITLE "Be My Baby" PERFORMER "Andy Kim" ISRC 4`4000900331 INDEX 01 00:00:00FILE "16. Barry Ryan - Eloise.wav" WAVE TRACK 16 AUDIO TITLE "Eloise" PERFORMER "Barry Ryan" ISRC 4`4000900331 INDEX 01 00:00:00FILE "17. Clarence ''Frogman'' Henry - But I Do.wav" WAVE TRACK 17 AUDIO TITLE "But I Do" PERFORMER "Clarence 'Frogman' Henry" ISRC 4`4000900331 INDEX 01 00:00:00FILE "18. Dave Dee, Dozy, Beaky, Mick and Tich - The Legend of Xanadu.wav" WAVE TRACK 18 AUDIO TITLE "The Legend of Xanadu" PERFORMER "Dave Dee, Dozy, Beaky, Mick and Tich" ISRC 5`4007000482 INDEX 01 00:00:00FILE "19. The Spencer Davis Group - Keep on Running.wav" WAVE TRACK 19 AUDIO TITLE "Keep on Running" PERFORMER "The Spencer Davis Group" ISRC 5`4007000482 INDEX 01 00:00:00FILE "20. Lulu and the Luvvers - Shout.wav" WAVE TRACK 20 AUDIO TITLE "Shout" PERFORMER "Lulu and the Luvvers" ISRC 5`4007000482 INDEX 01 00:00:00FILE "21. Small Faces - All or Nothing.wav" WAVE TRACK 21 AUDIO TITLE "All or Nothing" PERFORMER "Small Faces" ISRC 5`4007000482 INDEX 01 00:00:00FILE "22. The Mindbenders - A Groovy Kind of Love.wav" WAVE TRACK 22 AUDIO TITLE "A Groovy Kind of Love" PERFORMER "The Mindbenders" ISRC 8@4001300595 INDEX 01 00:00:00FILE "23. Smokey Robinson and The Miracles - The Tears of a Clown.wav" WAVE TRACK 23 AUDIO TITLE "The Tears of a Clown" PERFORMER "Smokey Robinson and The Miracles" ISRC 8@4001300595 INDEX 01 00:00:00FILE "24. Steppenwolf - Born to Be Wild.wav" WAVE TRACK 24 AUDIO TITLE "Born to Be Wild" PERFORMER "Steppenwolf" ISRC 8@4001300595 INDEX 01 00:00:00FILE "25. The Surfaris - Wipe Out.wav" WAVE TRACK 25 AUDIO TITLE "Wipe Out" PERFORMER "The Surfaris" ISRC 8@4001300595 INDEX 01 00:00:00FILE "26. Julie Driscoll with The Trinity and Brian Auger - This Wheel's on Fire.wav" WAVE TRACK 26 AUDIO TITLE "This Wheel's on Fire" PERFORMER "Julie Driscoll with The Trinity and Brian Auger" ISRC 8@4001300595 INDEX 01 00:00:00
Норвежское издание саундтрека к известному британскому сериалу Heartbeat, который в стране гор и фьордов приобрел огромную популярность и транслировался каждую субботу на общенациональном канале NRK, собирая у экранов более миллиона поклонников. Действие сериала происходит в графстве Йоркшир в вымышленном городке Эйденсфилд в 60-е годы, поэтому основу саундтрека составляют вечнозеленые хиты той прекрасной эпохи.


Трекер:  [ 16-Янв-2012 21:28 ]

  

Скачать .torrent

Размер .torrent файла 21 KB


Размер: 468 MB
Хэш (hash) релиза: 32a4069f7ec314c5842c7401e599763054c80c71

bot

Топик был перенесен в форум Саундтреки к фильмам и мультфильмам (lossless)

Перенес uzi2009

Хотите добавить комментарий к записи скачать торрент Биение сердца Heartbeat

!Обратная связь