Скачать через торрент музыку Рыжий пёс Red Dog бесплатно без регистрации torrent

Если у вас наблюдаются проблемы со скриншотами, переходом по ссылками, скачиванием торрентов - проблемы в блокировщике рекламы AdBlock. #хорошегоДня!


Статистика раздачи
Размер:  400 MB   |    Зарегистрирован:  5 лет 7 месяцев   |    .torrent скачан:  32 раза   |   
Раздают:  1  
   
Загрузка...
 
Автор Сообщение

Galfimbul

avatar Galfimbul


Рыжий пёс / Red Dog


Жанр: Soundtrack || Композитор: Cezary Skubiszewski & VA || Год выпуска диска: 2011 || Страна-производитель диска: Австралия || Аудио кодек: FLAC (*.flac) || Тип рипа: tracks+.cue || Битрейт аудио: lossless || Продолжительность: 01:04:03 || Источник: waffles || Наличие сканов в содержимом раздачи: нет
Треклист:01 - Narration [0:09]
02 - Evie part one (let your hair hang down) - Stevie Wright [4:04]
03 - Do the Stomp - The Snowdroppers [2:16]
04 - Instrumental One [2:17]
05 - Bom Bom - Daddy Cool [2:43]
06 - Instrumental Two [1:51]
07 - Eagle Rock - Daddy Cool [4:16]
08 - Jump into the Fire - Harry Nilsson [7:09]
09 - Stumblin' In - Suzie Quatro and Chris Norman [4:00]
10 - Run You Down - Frankie Mann [2:16]
11 - Shadow Boxer -The Angles [2:57]
12 - Clean White Love - Lisa Mitchell [3:54]
13 - Bellissimo [1:22]
14 - Wooly Bully - Sam the Sham and the Pharaohs [2:31]
15 - Move Over Rover - Billy Hall and his Rhythm Boys [1:53]
16 - Instrumental Three (classical guitar) [2:42]
17 - Instrumental Four [5:51]
18 - We can't be Beaten - Rose Tattoo [3:25]
19 - Instrumental Five [3:25]
20 - Way Out West - The Dingoes [2:19]
21 - Let my Love Open the Door - Pete Townshend [2:45]
 
Exact Audio Copy V1.0 beta 3 from 29. August 2011

EAC extraction logfile from 26. December 2011, 12:13

Various / Music from the moive Red Dog

Used drive : TSSTcorpCDDVDW TS-L633A Adapter: 1 ID: 0

Read mode : SecureUtilize accurate stream : YesDefeat audio cache : YesMake use of C2 pointers : No

Read offset correction : 6Overread into Lead-In and Lead-Out : NoFill up missing offset samples with silence : YesDelete leading and trailing silent blocks : NoNull samples used in CRC calculations : YesUsed interface : Native Win32 interface for Win NT & 2000Gap handling : Appended to previous track

Used output format : User Defined EncoderSelected bitrate : 128 kBit/sQuality : HighAdd ID3 tag : NoCommand line compressor : C:\Program Files (x86)\Exact Audio Copy\Flac\flac.exeAdditional command line options : -8 -V -T "ARTIST=%artist%" -T "TITLE=%title%" -T "ALBUM=%albumtitle%" -T "DATE=%year%" -T "TRACKNUMBER=%tracknr%" -T "GENRE=%genre%" -T "PERFORMER=%albuminterpret%" -T "COMPOSER=%composer%" %haslyrics%--tag-from-file=LYRICS="%lyricsfile%"%haslyrics% -T "ALBUMARTIST=%albumartist%" -T "DISCNUMBER=%cdnumber%" -T "TOTALDISCS=%totalcds%" -T "TOTALTRACKS=%numtracks%" -T "COMMENT=%comment%" %source% -o %dest%

TOC of the extracted CD

Track | Start | Length | Start sector | End sector --------------------------------------------------------- 1 | 0:00.00 | 0:08.41 | 0 | 640 2 | 0:08.41 | 4:03.72 | 641 | 18937 3 | 4:12.38 | 2:16.27 | 18938 | 29164 4 | 6:28.65 | 2:17.29 | 29165 | 39468 5 | 8:46.19 | 2:42.62 | 39469 | 51680 6 | 11:29.06 | 1:50.68 | 51681 | 59998 7 | 13:19.74 | 4:15.64 | 59999 | 79187 8 | 17:35.63 | 7:09.21 | 79188 | 111383 9 | 24:45.09 | 3:59.63 | 111384 | 129371 10 | 28:44.72 | 2:15.44 | 129372 | 139540 11 | 31:00.41 | 2:57.01 | 139541 | 152816 12 | 33:57.42 | 3:54.07 | 152817 | 170373 13 | 37:51.49 | 1:21.52 | 170374 | 176500 14 | 39:13.26 | 2:30.49 | 176501 | 187799 15 | 41:44.00 | 1:52.40 | 187800 | 196239 16 | 43:36.40 | 2:41.64 | 196240 | 208378 17 | 46:18.29 | 5:51.22 | 208379 | 234725 18 | 52:09.51 | 3:25.13 | 234726 | 250113 19 | 55:34.64 | 3:24.61 | 250114 | 265474 20 | 58:59.50 | 2:18.65 | 265475 | 275889 21 | 61:18.40 | 2:44.74 | 275890 | 288263

Track 1

Filename C:\EAC Cues\Music From The Movie - Red Dog\01 - Narration.wav

Pre-gap length 0:00:02.00

Peak level 96.9 % Extraction speed 0.4 X Track quality 100.0 % Test CRC DC977397 Copy CRC DC977397 Track not present in AccurateRip database Copy OK

Track 2

Filename C:\EAC Cues\Music From The Movie - Red Dog\02 - Evie part one (let your hair hang down) - Stevie Wright.wav

Peak level 100.0 % Extraction speed 2.3 X Track quality 100.0 % Test CRC 3590D003 Copy CRC 3590D003 Track not present in AccurateRip database Copy OK

Track 3

Filename C:\EAC Cues\Music From The Movie - Red Dog\03 - Do the Stomp - The Snowdroppers.wav

Pre-gap length 0:00:06.41

Peak level 100.0 % Extraction speed 2.2 X Track quality 100.0 % Test CRC B975FD4A Copy CRC B975FD4A Track not present in AccurateRip database Copy OK

Track 4

Filename C:\EAC Cues\Music From The Movie - Red Dog\04 - Instrumental One.wav

Pre-gap length 0:00:08.01

Peak level 100.0 % Extraction speed 2.3 X Track quality 100.0 % Test CRC 14572D7D Copy CRC 14572D7D Track not present in AccurateRip database Copy OK

Track 5

Filename C:\EAC Cues\Music From The Movie - Red Dog\05 - Bom Bom - Daddy Cool.wav

Pre-gap length 0:00:16.61

Peak level 100.0 % Extraction speed 2.5 X Track quality 100.0 % Test CRC 5BB222EE Copy CRC 5BB222EE Track not present in AccurateRip database Copy OK

Track 6

Filename C:\EAC Cues\Music From The Movie - Red Dog\06 - Instrumental Two.wav

Pre-gap length 0:00:09.17

Peak level 99.8 % Extraction speed 1.7 X Track quality 99.9 % Test CRC 6CC63A62 Copy CRC 6CC63A62 Track not present in AccurateRip database Copy OK

Track 7

Filename C:\EAC Cues\Music From The Movie - Red Dog\07 - Eagle Rock - Daddy Cool.wav

Pre-gap length 0:00:11.61

Peak level 100.0 % Extraction speed 3.0 X Track quality 100.0 % Test CRC E3A4A639 Copy CRC E3A4A639 Track not present in AccurateRip database Copy OK

Track 8

Filename C:\EAC Cues\Music From The Movie - Red Dog\08 - Jump into the Fire - Harry Nilsson.wav

Pre-gap length 0:00:07.86

Peak level 98.8 % Extraction speed 3.0 X Track quality 99.9 % Test CRC F48A824B Copy CRC F48A824B Track not present in AccurateRip database Copy OK

Track 9

Filename C:\EAC Cues\Music From The Movie - Red Dog\09 - Stumblin' In - Suzie Quatro and Chris Norman.wav

Pre-gap length 0:00:08.65

Peak level 100.0 % Extraction speed 3.4 X Track quality 100.0 % Test CRC F00AEA1F Copy CRC F00AEA1F Track not present in AccurateRip database Copy OK

Track 10

Filename C:\EAC Cues\Music From The Movie - Red Dog\10 - Run You Down - Frankie Mann.wav

Pre-gap length 0:00:04.18

Peak level 62.6 % Extraction speed 3.2 X Track quality 100.0 % Test CRC D990CB08 Copy CRC D990CB08 Track not present in AccurateRip database Copy OK

Track 11

Filename C:\EAC Cues\Music From The Movie - Red Dog\11 - Shadow Boxer -The Angles.wav

Pre-gap length 0:00:05.49

Peak level 100.0 % Extraction speed 3.4 X Track quality 100.0 % Test CRC F8AEFAE7 Copy CRC F8AEFAE7 Track not present in AccurateRip database Copy OK

Track 12

Filename C:\EAC Cues\Music From The Movie - Red Dog\12 - Clean White Love - Lisa Mitchell.wav

Pre-gap length 0:00:17.25

Peak level 75.0 % Extraction speed 3.7 X Track quality 100.0 % Test CRC 291B786C Copy CRC 291B786C Track not present in AccurateRip database Copy OK

Track 13

Filename C:\EAC Cues\Music From The Movie - Red Dog\13 - Bellissimo.wav

Pre-gap length 0:00:09.72

Peak level 78.0 % Extraction speed 2.9 X Track quality 100.0 % Test CRC BCB73638 Copy CRC BCB73638 Track not present in AccurateRip database Copy OK

Track 14

Filename C:\EAC Cues\Music From The Movie - Red Dog\14 - Wooly Bully - Sam the Sham and the Pharaohs.wav

Pre-gap length 0:00:27.30

Peak level 98.3 % Extraction speed 3.5 X Track quality 100.0 % Test CRC 4D963521 Copy CRC 4D963521 Track not present in AccurateRip database Copy OK

Track 15

Filename C:\EAC Cues\Music From The Movie - Red Dog\15 - Move Over Rover - Billy Hall and his Rhythm Boys.wav

Pre-gap length 0:00:10.06

Peak level 100.0 % Extraction speed 2.3 X Track quality 99.9 % Test CRC 0AEB6ACA Copy CRC 0AEB6ACA Track not present in AccurateRip database Copy OK

Track 16

Filename C:\EAC Cues\Music From The Movie - Red Dog\16 - Instrumental Three (classical guitar).wav

Pre-gap length 0:00:13.50

Peak level 75.6 % Extraction speed 3.7 X Track quality 100.0 % Test CRC C4830803 Copy CRC C4830803 Track not present in AccurateRip database Copy OK

Track 17

Filename C:\EAC Cues\Music From The Movie - Red Dog\17 - Instrumental Four.wav

Pre-gap length 0:00:30.48

Peak level 75.0 % Extraction speed 4.3 X Track quality 100.0 % Test CRC 6C11D08C Copy CRC 6C11D08C Track not present in AccurateRip database Copy OK

Track 18

Filename C:\EAC Cues\Music From The Movie - Red Dog\18 - We can't be Beaten - Rose Tattoo.wav

Pre-gap length 0:00:08.62

Peak level 100.0 % Extraction speed 3.2 X Track quality 99.9 % Test CRC DC1E2612 Copy CRC DC1E2612 Track not present in AccurateRip database Copy OK

Track 19

Filename C:\EAC Cues\Music From The Movie - Red Dog\19 - Instrumental Five.wav

Pre-gap length 0:00:20.57

Peak level 100.0 % Extraction speed 3.3 X Track quality 99.9 % Test CRC 7CA479EE Copy CRC 7CA479EE Track not present in AccurateRip database Copy OK

Track 20

Filename C:\EAC Cues\Music From The Movie - Red Dog\20 - Way Out West - The Dingoes.wav

Pre-gap length 0:00:22.26

Peak level 99.8 % Extraction speed 4.0 X Track quality 100.0 % Test CRC C367621B Copy CRC C367621B Track not present in AccurateRip database Copy OK

Track 21

Filename C:\EAC Cues\Music From The Movie - Red Dog\21 - Let my Love Open the Door - Pete Townshend.wav

Pre-gap length 0:00:12.25

Peak level 85.4 % Extraction speed 3.1 X Track quality 99.9 % Test CRC ECAD2259 Copy CRC ECAD2259 Track not present in AccurateRip database Copy OK

None of the tracks are present in the AccurateRip database

No errors occurred

End of status report

---- CUETools DB Plugin V2.1.3

[CTDB TOCID: 80HMVghIcSpPkCGEdfkZm4xR180-] disk not present in database, Submit result: 80HMVghIcSpPkCGEdfkZm4xR180- has been uploaded

==== Log checksum 7E5A544A0200D2DB4F2E8FDDFC78D07C1CAADF61AEB2C0226290CD921BB7CDFC ====
 
REM GENRE SoundtrackREM DATE 2011REM DISCID 140F0315REM COMMENT "ExactAudioCopy v1.0b3"PERFORMER "Various"TITLE "Music from the moive Red Dog"FILE "01 - Narration.wav" WAVE TRACK 01 AUDIO TITLE "Narration" PERFORMER "Various" ISRC ;SHl07400019 INDEX 01 00:00:00FILE "02 - Evie part one (let your hair hang down) - Stevie Wright.wav" WAVE TRACK 02 AUDIO TITLE "Evie part one (let your hair hang down) - Stevie Wright" PERFORMER "Various" ISRC ;SHl07400019 INDEX 01 00:00:00 TRACK 03 AUDIO TITLE "Do the Stomp - The Snowdroppers" PERFORMER "Various" ISRC ;SMV20910002 INDEX 00 03:57:41FILE "03 - Do the Stomp - The Snowdroppers.wav" WAVE INDEX 01 00:00:00 TRACK 04 AUDIO TITLE "Instrumental One" PERFORMER "Various" ISRC ;UYO31100011 INDEX 00 02:08:26FILE "04 - Instrumental One.wav" WAVE INDEX 01 00:00:00 TRACK 05 AUDIO TITLE "Bom Bom - Daddy Cool" PERFORMER "Various" ISRC ;SJM07170106 INDEX 00 02:00:58FILE "05 - Bom Bom - Daddy Cool.wav" WAVE INDEX 01 00:00:00 TRACK 06 AUDIO TITLE "Instrumental Two" PERFORMER "Various" ISRC ;UYO31100012 INDEX 00 02:33:49FILE "06 - Instrumental Two.wav" WAVE INDEX 01 00:00:00 TRACK 07 AUDIO TITLE "Eagle Rock - Daddy Cool" PERFORMER "Various" ISRC ;SJM07160101 INDEX 00 01:39:22FILE "07 - Eagle Rock - Daddy Cool.wav" WAVE INDEX 01 00:00:00 TRACK 08 AUDIO TITLE "Jump into the Fire - Harry Nilsson" PERFORMER "Various" ISRC H2IM17208434 INDEX 00 04:07:74FILE "08 - Jump into the Fire - Harry Nilsson.wav" WAVE INDEX 01 00:00:00 TRACK 09 AUDIO TITLE "Stumblin' In - Suzie Quatro and Chris Norman" PERFORMER "Various" ISRC <cH`17800048 INDEX 00 07:00:47FILE "09 - Stumblin' In - Suzie Quatro and Chris Norman.wav" WAVE INDEX 01 00:00:00 TRACK 10 AUDIO TITLE "Run You Down - Frankie Mann" PERFORMER "Various" INDEX 00 03:55:49FILE "10 - Run You Down - Frankie Mann.wav" WAVE INDEX 01 00:00:00 TRACK 11 AUDIO TITLE "Shadow Boxer -The Angles" PERFORMER "Various" ISRC ;SHl07900003 INDEX 00 02:10:07FILE "11 - Shadow Boxer -The Angles.wav" WAVE INDEX 01 00:00:00 TRACK 12 AUDIO TITLE "Clean White Love - Lisa Mitchell" PERFORMER "Various" ISRC GAPnA0900642 INDEX 00 02:39:57FILE "12 - Clean White Love - Lisa Mitchell.wav" WAVE INDEX 01 00:00:00 TRACK 13 AUDIO TITLE "Bellissimo" PERFORMER "Various" ISRC ;UYO31100013 INDEX 00 03:44:28FILE "13 - Bellissimo.wav" WAVE INDEX 01 00:00:00 TRACK 14 AUDIO TITLE "Wooly Bully - Sam the Sham and the Pharaohs" PERFORMER "Various" ISRC H2=@66525040 INDEX 00 00:54:29FILE "14 - Wooly Bully - Sam the Sham and the Pharaohs.wav" WAVE INDEX 01 00:00:00 TRACK 15 AUDIO TITLE "Move Over Rover - Billy Hall and his Rhythm Boys" PERFORMER "Various" INDEX 00 02:20:44FILE "15 - Move Over Rover - Billy Hall and his Rhythm Boys.wav" WAVE INDEX 01 00:00:00 TRACK 16 AUDIO TITLE "Instrumental Three (classical guitar)" PERFORMER "Various" ISRC ;UYO31100014 INDEX 00 01:39:02FILE "16 - Instrumental Three (classical guitar).wav" WAVE INDEX 01 00:00:00 TRACK 17 AUDIO TITLE "Instrumental Four" PERFORMER "Various" ISRC ;UYO31100015 INDEX 00 02:11:28FILE "17 - Instrumental Four.wav" WAVE INDEX 01 00:00:00 TRACK 18 AUDIO TITLE "We can't be Beaten - Rose Tattoo" PERFORMER "Various" ISRC ;SHl58200001 INDEX 00 05:42:50FILE "18 - We can't be Beaten - Rose Tattoo.wav" WAVE INDEX 01 00:00:00 TRACK 19 AUDIO TITLE "Instrumental Five" PERFORMER "Various" ISRC ;UYO31100016 INDEX 00 03:04:45FILE "19 - Instrumental Five.wav" WAVE INDEX 01 00:00:00 TRACK 20 AUDIO TITLE "Way Out West - The Dingoes" PERFORMER "Various" ISRC ;S^300900424 INDEX 00 03:02:41FILE "20 - Way Out West - The Dingoes.wav" WAVE INDEX 01 00:00:00 TRACK 21 AUDIO TITLE "Let my Love Open the Door - Pete Townshend" PERFORMER "Various" ISRC GAT@A0500036 INDEX 00 02:06:46FILE "21 - Let my Love Open the Door - Pete Townshend.wav" WAVE INDEX 01 00:00:00


Трекер:  [ 09-Фев-2012 18:52 ]

  

Скачать .torrent

Размер .torrent файла 17 KB


Размер: 400 MB
Хэш (hash) релиза: a1107b4a76c61dc99e7d5f7bf9d8dc851add9f4f

Торренты, похожие на Рыжий пёс Red Dog скачать торрент

Форум Название Автор Размер S L Добавлен
Саундтреки к фильмам и мультфильмам (mp3) ·· (Soundtrack) Рыжий пёс / Red Dog (by Cezary Skubiszewski & VA) - 2011, MP3 , 320 kbps Galfimbul 153886134147 MB 0 0 1325064707

12:31

28-Дек-11

Еще никто не оставлял запись к записи скачать торрент Рыжий пёс Red Dog . Будь первым!

!Обратная связь