Скачать через торрент музыку Таинственные люди Mystery Men - 1999 бесплатно без регистрации torrent

Если у вас наблюдаются проблемы со скриншотами, переходом по ссылками, скачиванием торрентов - проблемы в блокировщике рекламы AdBlock. #хорошегоДня!


Статистика раздачи
Размер:  353 MB   |    Зарегистрирован:  5 лет 8 месяцев   |    .torrent скачан:  43 раза   |   
Раздают:  1  
   
Загрузка...
 
Автор Сообщение

uzi2009

avatar uzi2009


Таинственные люди / Mystery Men



Жанр: Soundtrack
Год выпуска диска: 1999
Лейбл: Interscope Records
Аудио кодек: FLAC
Тип рипа: tracks+.cue
Битрейт аудио: lossless
Продолжительность: 00:51:19

Треклист:
01. John Oszajca - Back in 1999 (03:46)
02. Smash Mouth - All Star (03:20)
03. Dub Pistols - Keep Keep Movin' (03:43)
04. Mark Mothersbaugh feat. Terry Bradford, Wil Wheaton & Nancye Ferguson - The Mystery Men Mantra (04:11)
05. Freak Power - No Way (04:14)
06. Kel and the M.A.F.T. Emcees feat. Romaine Jones - Who Are Those Mystery Men (04:09)
07. Jill Sobule - Rainy Day Parade (03:05)
08. Michael Franti & Spearhead - Sometimes (03:48)
09. Spy - Won't You Come Down (04:04)
10. Citizen King - Gangsters (02:44)
11. Violent Femmes - No More Heroes (02:54)
12. Moloko - Indigo (03:35)
13. The Trammps - Disco Inferno (03:35)
14. Bee Gees - Night Fever (03:31)
15. Ben Stiller & William H. Macy - Mystery Men Oath (00:42)
 
Exact Audio Copy V0.99 prebeta 3 from 28. July 2007

EAC extraction logfile from 29. December 2009, 18:43

Soundtracks / Mystery Men: Original Motion Picture Soundtrack

Used drive : MATSHITABD-RE UJ-225S Adapter: 0 ID: 0

Read mode : SecureUtilize accurate stream : YesDefeat audio cache : YesMake use of C2 pointers : No

Read offset correction : 102Overread into Lead-In and Lead-Out : NoFill up missing offset samples with silence : YesDelete leading and trailing silent blocks : NoNull samples used in CRC calculations : YesUsed interface : Native Win32 interface for Win NT & 2000Gap handling : Appended to previous track

Used output format : User Defined EncoderSelected bitrate : 128 kBit/sQuality : HighAdd ID3 tag : NoCommand line compressor : C:\Program Files (x86)\Exact Audio Copy\Flac\flac.exeAdditional command line options : -V -8 -T "artist=%a" -T "title=%t" -T "album=%g" -T "date=%y" -T "tracknumber=%n" -T "genre=%m" %s

TOC of the extracted CD

Track | Start | Length | Start sector | End sector --------------------------------------------------------- 1 | 0:00.00 | 3:45.52 | 0 | 16926 2 | 3:45.52 | 3:19.40 | 16927 | 31891 3 | 7:05.17 | 3:42.45 | 31892 | 48586 4 | 10:47.62 | 4:11.00 | 48587 | 67411 5 | 14:58.62 | 4:14.08 | 67412 | 86469 6 | 19:12.70 | 4:08.40 | 86470 | 105109 7 | 23:21.35 | 3:05.02 | 105110 | 118986 8 | 26:26.37 | 3:48.10 | 118987 | 136096 9 | 30:14.47 | 4:04.15 | 136097 | 154411 10 | 34:18.62 | 2:43.58 | 154412 | 166694 11 | 37:02.45 | 2:54.25 | 166695 | 179769 12 | 39:56.70 | 3:34.42 | 179770 | 195861 13 | 43:31.37 | 3:34.40 | 195862 | 211951 14 | 47:06.02 | 3:30.60 | 211952 | 227761 15 | 50:36.62 | 0:42.35 | 227762 | 230946

Track 1

Filename C:\EACrips\Soundtracks - 1998 - Mystery Men- Original Motion Picture Soundtrack [FLAC]\01 - John Oszajca , Back In 1999.wav

Pre-gap length 0:00:02.00

Peak level 99.1 % Track quality 100.0 % Test CRC FE695A53 Copy CRC FE695A53 Accurately ripped (confidence 9) [40C7657E] Copy OK

Track 2

Filename C:\EACrips\Soundtracks - 1998 - Mystery Men- Original Motion Picture Soundtrack [FLAC]\02 - Smash Mouth , All Star.wav

Peak level 99.1 % Track quality 100.0 % Test CRC 4492F091 Copy CRC 4492F091 Accurately ripped (confidence 9) [F04039B9] Copy OK

Track 3

Filename C:\EACrips\Soundtracks - 1998 - Mystery Men- Original Motion Picture Soundtrack [FLAC]\03 - Dub Pistols , Keep Keep Movin'.wav

Peak level 99.1 % Track quality 100.0 % Test CRC 64525245 Copy CRC 64525245 Accurately ripped (confidence 9) [1CF224D1] Copy OK

Track 4

Filename C:\EACrips\Soundtracks - 1998 - Mystery Men- Original Motion Picture Soundtrack [FLAC]\04 - Mark Mothersbaugh feat. Terry Bradford, Wil Wheaton & Nancye Ferguson , The Mystery Men Mantra.wav

Peak level 99.1 % Track quality 99.9 % Test CRC CCBACB0F Copy CRC CCBACB0F Cannot be verified as accurate (confidence 9) [4037C3DB], AccurateRip returned [B5A69E06] Copy OK

Track 5

Filename C:\EACrips\Soundtracks - 1998 - Mystery Men- Original Motion Picture Soundtrack [FLAC]\05 - Freak Power , No Way.wav

Peak level 99.1 % Track quality 100.0 % Test CRC 3C36E44B Copy CRC 3C36E44B Accurately ripped (confidence 9) [A3A2FC74] Copy OK

Track 6

Filename C:\EACrips\Soundtracks - 1998 - Mystery Men- Original Motion Picture Soundtrack [FLAC]\06 - Kel and the M.A.F.T. Emcees feat. Romaine Jones , Who Are Those Mystery Men.wav

Peak level 99.1 % Track quality 100.0 % Test CRC 0D9D56EA Copy CRC 0D9D56EA Accurately ripped (confidence 9) [3292211E] Copy OK

Track 7

Filename C:\EACrips\Soundtracks - 1998 - Mystery Men- Original Motion Picture Soundtrack [FLAC]\07 - Jill Sobule , Rainy Day Parade.wav

Pre-gap length 0:00:01.13

Peak level 99.1 % Track quality 100.0 % Test CRC 83A3C09C Copy CRC 83A3C09C Accurately ripped (confidence 9) [6BC9B641] Copy OK

Track 8

Filename C:\EACrips\Soundtracks - 1998 - Mystery Men- Original Motion Picture Soundtrack [FLAC]\08 - Michael Franti & Spearhead , Sometimes.wav

Peak level 99.1 % Track quality 99.9 % Test CRC 6CA6D550 Copy CRC 6CA6D550 Accurately ripped (confidence 9) [ED5DF851] Copy OK

Track 9

Filename C:\EACrips\Soundtracks - 1998 - Mystery Men- Original Motion Picture Soundtrack [FLAC]\09 - Spy , Won't You Come Down.wav

Peak level 99.1 % Track quality 100.0 % Test CRC 72CB4D40 Copy CRC 72CB4D40 Accurately ripped (confidence 9) [B908EAD3] Copy OK

Track 10

Filename C:\EACrips\Soundtracks - 1998 - Mystery Men- Original Motion Picture Soundtrack [FLAC]\10 - Citizen King , Gangsters.wav

Peak level 99.1 % Track quality 100.0 % Test CRC E0116AC9 Copy CRC E0116AC9 Accurately ripped (confidence 9) [2BD39422] Copy OK

Track 11

Filename C:\EACrips\Soundtracks - 1998 - Mystery Men- Original Motion Picture Soundtrack [FLAC]\11 - Violent Femmes , No More Heroes.wav

Peak level 99.0 % Track quality 99.9 % Test CRC FB31D3CB Copy CRC FB31D3CB Accurately ripped (confidence 9) [2DF5993C] Copy OK

Track 12

Filename C:\EACrips\Soundtracks - 1998 - Mystery Men- Original Motion Picture Soundtrack [FLAC]\12 - Moloko , Indigo.wav

Peak level 100.0 % Track quality 100.0 % Test CRC AE65B8BD Copy CRC AE65B8BD Accurately ripped (confidence 9) [455156DB] Copy OK

Track 13

Filename C:\EACrips\Soundtracks - 1998 - Mystery Men- Original Motion Picture Soundtrack [FLAC]\13 - The Trammps , Disco Inferno.wav

Peak level 99.1 % Track quality 99.9 % Test CRC 631A3E5E Copy CRC 631A3E5E Accurately ripped (confidence 9) [C16044CF] Copy OK

Track 14

Filename C:\EACrips\Soundtracks - 1998 - Mystery Men- Original Motion Picture Soundtrack [FLAC]\14 - The Bee Gees , Night Fever.wav

Peak level 99.1 % Track quality 100.0 % Test CRC 451AEFD6 Copy CRC 451AEFD6 Accurately ripped (confidence 9) [61BEC8A4] Copy OK

Track 15

Filename C:\EACrips\Soundtracks - 1998 - Mystery Men- Original Motion Picture Soundtrack [FLAC]\15 - Ben Stiller & William H. Macy , Mystery Men Oath.wav

Peak level 83.3 % Track quality 100.0 % Test CRC 1279CE83 Copy CRC 1279CE83 Accurately ripped (confidence 9) [9765B142] Copy OK

14 track(s) accurately ripped 1 track(s) could not be verified as accurate

Some tracks could not be verified as accurate

No errors occurred

End of status report
 
REM GENRE SoundtrackREM DATE 1999REM DISCID C50C070FREM COMMENT "ExactAudioCopy v0.99pb3"PERFORMER "Various Artists"TITLE "Mystery Men"FILE "01 - Back in 1999.wav" WAVE TRACK 01 AUDIO TITLE "Back in 1999" PERFORMER "John Oszajca" INDEX 01 00:00:00FILE "02 - All Star.wav" WAVE TRACK 02 AUDIO TITLE "All Star" PERFORMER "Smash Mouth" INDEX 01 00:00:00FILE "03 - Keep Keep Movin'.wav" WAVE TRACK 03 AUDIO TITLE "Keep Keep Movin'" PERFORMER "Dub Pistols" INDEX 01 00:00:00FILE "04 - The Mystery Men Mantra.wav" WAVE TRACK 04 AUDIO TITLE "The Mystery Men Mantra" PERFORMER "Mark Mothersbaugh feat. Terry Bradford, Wil Wheaton & Nancye Ferguson" INDEX 01 00:00:00FILE "05 - No Way.wav" WAVE TRACK 05 AUDIO TITLE "No Way" PERFORMER "Freak Power" INDEX 01 00:00:00FILE "06 - Who Are Those Mystery Men.wav" WAVE TRACK 06 AUDIO TITLE "Who Are Those Mystery Men" PERFORMER "Kel and the M.A.F.T. Emcees feat. Romaine Jones" INDEX 01 00:00:00 TRACK 07 AUDIO TITLE "Rainy Day Parade" PERFORMER "Jill Sobule" INDEX 00 04:07:30FILE "07 - Rainy Day Parade.wav" WAVE INDEX 01 00:00:00FILE "08 - Sometimes.wav" WAVE TRACK 08 AUDIO TITLE "Sometimes" PERFORMER "Michael Franti & Spearhead" INDEX 01 00:00:00FILE "09 - Won't You Come Down.wav" WAVE TRACK 09 AUDIO TITLE "Won't You Come Down" PERFORMER "Spy" INDEX 01 00:00:00FILE "10 - Gangsters.wav" WAVE TRACK 10 AUDIO TITLE "Gangsters" PERFORMER "Citizen King" INDEX 01 00:00:00FILE "11 - No More Heroes.wav" WAVE TRACK 11 AUDIO TITLE "No More Heroes" PERFORMER "Violent Femmes" INDEX 01 00:00:00FILE "12 - Indigo.wav" WAVE TRACK 12 AUDIO TITLE "Indigo" PERFORMER "Moloko" INDEX 01 00:00:00FILE "13 - Disco Inferno.wav" WAVE TRACK 13 AUDIO TITLE "Disco Inferno" PERFORMER "The Trammps" INDEX 01 00:00:00FILE "14 - Night Fever.wav" WAVE TRACK 14 AUDIO TITLE "Night Fever" PERFORMER "Bee Gees" INDEX 01 00:00:00FILE "15 - Mystery Men Oath.wav" WAVE TRACK 15 AUDIO TITLE "Mystery Men Oath" PERFORMER "Ben Stiller & William H. Macy" INDEX 01 00:00:00



Трекер:  [ 16-Янв-2012 21:32 ]

  

Скачать .torrent

Размер .torrent файла 15 KB


Размер: 353 MB
Хэш (hash) релиза: aaeb506196d0a9d3d9e973daf119c12ef9e40475

bot

Топик был перенесен в форум Саундтреки к фильмам и мультфильмам (lossless)

Перенес uzi2009

Хотите добавить комментарий к записи скачать торрент Таинственные люди Mystery Men - 1999

!Обратная связь