Скачать через торрент музыку Слова и Музыка - 2004, FLAC бесплатно без регистрации torrent

Если у вас наблюдаются проблемы со скриншотами, переходом по ссылками, скачиванием торрентов - проблемы в блокировщике рекламы AdBlock. #хорошегоДня!


Статистика раздачи
Размер:  301 MB   |    Зарегистрирован:  5 лет 8 месяцев   |    .torrent скачан:  21 раз   |   
Раздают:  1  
   
Загрузка...
 
Автор Сообщение

uzi2009

avatar uzi2009


Слова и Музыка



Жанр: Soundtrack
Год выпуска диска: 2004
Страна-производитель диска: Россия
Аудио кодек: FLAC (*.flac)
Тип рипа: image+.cue
Битрейт аудио: lossless
Продолжительность: 46:53
Наличие сканов в содержимом раздачи: да

Треклист:
01. дуэт Карамель
02. Н.Крупатин - Снег
03. Н.Крупатин - Набери мой номер
04. М.Башаков - Не парься
05. Магнитная аномалия - Eminem
06. Звери - Герой
07. И.Черт - Со мной
08. Шао?Бао! - Электронная любовь
09. Ундервуд - День Сурка
10. Найк Борзов - Ради любви
11. И.Наджиев - Самая лучшая женщина
12. Viktoria - Гуашь
 
Exact Audio Copy V0.99 prebeta 5 from 4. May 2009

Отчёт EAC об извлечении, выполненном 6. сентября 2010, 23:03

Various / Слова и музыка

Дисковод: Optiarc DVD RW AD-5240S Adapter: 3 ID: 0

Режим чтения : ДостоверностьИспользование точного потока : ДаОтключение кэша аудио : ДаИспользование указателей C2 : Нет

Коррекция смещения при чтении : 48Способность читать области Lead-in и Lead-out : НетЗаполнение пропущенных сэмплов тишиной : ДаУдаление блоков с тишиной в начале и конце : НетПри вычислениях CRC использовались нулевые сэмплы : ДаИнтерфейс : Встроенный Win32-интерфейс для Win NT/2000

Выходной формат : Внутренние WAV-операцииФормат сэмплов : 44.100 Гц; 16 бит; стерео

TOC извлечённого CD

Трек | Старт | Длительность | Начальный сектор | Конечный сектор --------------------------------------------------------------------- 1 | 0:00.00 | 3:37.16 | 0 | 16290 2 | 3:37.16 | 4:38.67 | 16291 | 37207 3 | 8:16.08 | 3:39.57 | 37208 | 53689 4 | 11:55.65 | 4:53.38 | 53690 | 75702 5 | 16:49.28 | 2:42.39 | 75703 | 87891 6 | 19:31.67 | 3:26.41 | 87892 | 103382 7 | 22:58.33 | 3:01.68 | 103383 | 117025 8 | 26:00.26 | 4:10.06 | 117026 | 135781 9 | 30:10.32 | 3:50.33 | 135782 | 153064 10 | 34:00.65 | 3:16.70 | 153065 | 167834 11 | 37:17.60 | 5:28.13 | 167835 | 192447 12 | 42:45.73 | 4:07.34 | 192448 | 211006

Характеристики диапазона извлечения и сообщения об ошибках

Выбранный диапазон

Имя файла F:\Downloads\Various - Слова и музыка.wav

Пиковый уровень 100.0 % Качество диапазона 100.0 % CRC теста DDDB3D31 CRC копии DDDB3D31 Копирование... OK

Ошибок не произошло

AccurateRip: сводка

Трек 1 нет в базе данныхТрек 2 нет в базе данныхТрек 3 нет в базе данныхТрек 4 нет в базе данныхТрек 5 нет в базе данныхТрек 6 нет в базе данныхТрек 7 нет в базе данныхТрек 8 нет в базе данныхТрек 9 нет в базе данныхТрек 10 нет в базе данныхТрек 11 нет в базе данныхТрек 12 нет в базе данных

Ни одного трека нет в базе AccurateRip

Конец отчёта
 
AUDIOCHECKER v2.0 beta (build 457) - by Dester - opdester@freemail.hu~~~~~~~~~~~~~~~~~~~~~~~~~~~~~~~~~~-=== НЕ РЕДАКТИРУЙТЕ ЭТОТ ФАЙЛ! ===-

Путь: ...\Various - Слова и музыка

1 -=- Various - Слова и музыка.wav -=- CDDA (100%)

82077940


Трекер:  [ 16-Янв-2012 21:45 ]

  

Скачать .torrent

Размер .torrent файла 13 KB


Размер: 301 MB
Хэш (hash) релиза: 46905871f2415ca57966fcf10fc8eeaf6500db6d

bot

Топик был перенесен в форум Саундтреки к фильмам и мультфильмам (lossless)

Перенес uzi2009

Хотите добавить комментарий к записи скачать торрент Слова и Музыка - 2004, FLAC

!Обратная связь